National Geographic - Вертолетные баталии / Helicopter Wars - National Geographic (National Geographic) [военный, документальный, история]

Ответить на тему
 
Автор
Сообщение

DrSOAD ®

Стаж: 8 лет 7 месяцев

Сообщений: 134

Создавать темы 23-Июн-2010 19:13

[Цитировать] 

National Geographic - Вертолетные баталии / Helicopter Wars - National Geographic- --Дуэль в пустыне / Duel In The Desert

Год выпуска: 2009
Страна: США
Режиссер: National Geographic
Жанр: Документальный, военный, история
Продолжительность: 00:47:02
Перевод: Профессиональный (одноголосый)
Русские субтитры: нет
Описание:
Война с Саддамом Хусейном, британский ударный вертолет попал в прицел вражеского танка. Охотник превратился в жертву. Единственный шанс выжить - поменяться ролями. Если вы не видите врага - вас собьют. Когда игра в прятки закончится, начнется финальная дуэль в пустыне.

Скриншоты

Media Info

General
Format : Matroska
File size : 1.22 GiB
Duration : 47mn 2s
Overall bit rate : 3 713 Kbps
Encoded date : UTC 2009-12-19 19:29:14
Writing application : mkvmerge v2.4.1 ('Use Me') built on Dec 5 2008 18:30:05
Writing library : libebml v0.7.7 + libmatroska v0.8.1
Video #1
ID : 1
Format : AVC
Format/Info : Advanced Video Codec
Format profile : [email protected]
Format settings, CABAC : Yes
Format settings, ReFrames : 3 frames
Muxing mode : Container [email protected]
Codec ID : V_MPEG4/ISO/AVC
Duration : 47mn 2s
Bit rate : 2 941 Kbps
Width : 1 280 pixels
Height : 720 pixels
Display aspect ratio : 16:9
Frame rate : 25.000 fps
Color space : YUV
Chroma subsampling : 4:2:0
Bit depth : 8 bits
Scan type : Progressive
Bits/(Pixel*Frame) : 0.128
Stream size : 966 MiB (77%)
Writing library : x264 core 68 r1183M f21daff
Language : English
Audio #2
ID : 2
Format : AC-3
Format/Info : Audio Coding 3
Mode extension : CM (complete main)
Codec ID : A_AC3
Duration : 47mn 2s
Bit rate mode : Constant
Bit rate : 384 Kbps
Channel(s) : 6 channels
Channel positions : Front: L C R, Side: L R, LFE
Sampling rate : 48.0 KHz
Stream size : 129 MiB (10%)
Language : Russian
Audio #3
ID : 3
Format : AC-3
Format/Info : Audio Coding 3
Mode extension : CM (complete main)
Codec ID : A_AC3
Duration : 47mn 2s
Bit rate mode : Constant
Bit rate : 384 Kbps
Channel(s) : 6 channels
Channel positions : Front: L C R, Side: L R, LFE
Sampling rate : 48.0 KHz
Stream size : 129 MiB (10%)
Language : English
--В ловушке у талибов / Trapped by The Taliban (The Taliban Gambit)

Год выпуска: 2009
Страна: США
Режиссер: National Geographic
Жанр: Документальный, военный, история
Продолжительность: 00:46:42
Перевод: Профессиональный (одноголосый)
Русские субтитры: нет
Описание:
В Афганистане в засаду талибов попала группа спецназа ВМФ США, которой угрожает полное уничтожение. Спасение со склона горы на вертолете - последняя надежда морских котиков. Собственный спасательный вертолет спецназа был сбит. Теперь бригаде резервистов ВВС США предстоит отправиться на миссию, которую уже провалили лучшие из лучших.

Скриншоты

Media Info

General
Format : Matroska
File size : 1.22 GiB
Duration : 46mn 42s
Overall bit rate : 3 733 Kbps
Encoded date : UTC 2009-12-19 20:18:37
Writing application : mkvmerge v2.4.1 ('Use Me') built on Dec 5 2008 18:30:05
Writing library : libebml v0.7.7 + libmatroska v0.8.1
Video #1
ID : 1
Format : AVC
Format/Info : Advanced Video Codec
Format profile : [email protected]
Format settings, CABAC : Yes
Format settings, ReFrames : 3 frames
Muxing mode : Container [email protected]
Codec ID : V_MPEG4/ISO/AVC
Duration : 46mn 42s
Bit rate : 3 122 Kbps
Width : 1 280 pixels
Height : 720 pixels
Display aspect ratio : 16:9
Frame rate : 25.000 fps
Color space : YUV
Chroma subsampling : 4:2:0
Bit depth : 8 bits
Scan type : Progressive
Bits/(Pixel*Frame) : 0.136
Stream size : 1 019 MiB (82%)
Writing library : x264 core 76 r1268 d542926
Language : English
Audio #2
ID : 2
Format : AC-3
Format/Info : Audio Coding 3
Mode extension : CM (complete main)
Codec ID : A_AC3
Duration : 46mn 42s
Bit rate mode : Constant
Bit rate : 384 Kbps
Channel(s) : 6 channels
Channel positions : Front: L C R, Side: L R, LFE
Sampling rate : 48.0 KHz
Stream size : 128 MiB (10%)
Language : Russian
Audio #3
ID : 3
Format : AC-3
Format/Info : Audio Coding 3
Mode extension : CM (complete main)
Codec ID : A_AC3
Duration : 46mn 42s
Bit rate mode : Constant
Bit rate : 224 Kbps
Channel(s) : 6 channels
Channel positions : Front: L C R, Side: L R, LFE
Sampling rate : 48.0 KHz
Stream size : 74.8 MiB (6%)
Language : English
--Вьетнамская битва / Vietnam Firefight

Год выпуска: 2009
Страна: США
Режиссер: National Geographic
Жанр: Документальный, военный, история
Продолжительность: 00:46:46
Перевод: Профессиональный (одноголосый)
Русские субтитры: нет
Описание:
Век вертолетов начался во Вьетнаме, с одной неуязвимой машины, которая стала символом той войны - "Хъюи". Это был боевой конь воздушной кавалерии команд военных медиков. Для многих молодых людей эти вертолеты были недолгим приключением, у пилота вертолета во Вьетнаме было вдвое больше шансов быть убитым, чем у обычного солдата. Некоторые миссии были так опасны, что лучше было не думать о шансах выжить. Сорок лет спустя эти пилоты вспоминают самую драматическую миссию в их жизни. Вновь и вновь они вылетали, чтобы спасти сотню солдат, попавших в засаду.

Скриншоты

Media Info

General
Format : Matroska
File size : 1.22 GiB
Duration : 46mn 46s
Overall bit rate : 3 730 Kbps
Encoded date : UTC 2009-12-23 10:02:33
Writing application : mkvmerge v2.4.1 ('Use Me') built on Dec 5 2008 18:30:05
Writing library : libebml v0.7.7 + libmatroska v0.8.1
Video #1
ID : 1
Format : AVC
Format/Info : Advanced Video Codec
Format profile : [email protected]
Format settings, CABAC : Yes
Format settings, ReFrames : 3 frames
Muxing mode : Container [email protected]
Codec ID : V_MPEG4/ISO/AVC
Duration : 46mn 46s
Bit rate : 2 959 Kbps
Width : 1 280 pixels
Height : 720 pixels
Display aspect ratio : 16:9
Frame rate : 25.000 fps
Color space : YUV
Chroma subsampling : 4:2:0
Bit depth : 8 bits
Scan type : Progressive
Bits/(Pixel*Frame) : 0.128
Stream size : 966 MiB (77%)
Writing library : x264 core 76 r1268 d542926
Language : English
Audio #2
ID : 2
Format : AC-3
Format/Info : Audio Coding 3
Mode extension : CM (complete main)
Codec ID : A_AC3
Duration : 46mn 46s
Bit rate mode : Constant
Bit rate : 384 Kbps
Channel(s) : 6 channels
Channel positions : Front: L C R, Side: L R, LFE
Sampling rate : 48.0 KHz
Stream size : 128 MiB (10%)
Language : Russian
Audio #3
ID : 3
Format : AC-3
Format/Info : Audio Coding 3
Mode extension : CM (complete main)
Codec ID : A_AC3
Duration : 46mn 46s
Bit rate mode : Constant
Bit rate : 384 Kbps
Channel(s) : 6 channels
Channel positions : Front: L C R, Side: L R, LFE
Sampling rate : 48.0 KHz
Stream size : 128 MiB (10%)
Language : English
--Фолклендская операция / SAS. Falklands Rescue. (White Out)

Год выпуска: 2009
Страна: США
Режиссер: National Geographic
Жанр: Документальный, военный, история
Продолжительность: 00:47:08
Перевод: Профессиональный (одноголосый)
Русские субтитры: нет
Описание:
Фолклендская война, 1982 год. Ураганный ветер запер солдат из группы специального назначения на вершине далекого ледника. Вертолеты ВМФ Ее Величества готовятся к дерзкой спасательной операции, их двигатели могут отказать в любой момент. Единственное средство найти выход из смертельного лабиринта изо льда и скал. Три вертолета улетают в неизвестность, вернется только один.

Скриншоты

Media Info

General
Format : Matroska
File size : 1.11 GiB
Duration : 47mn 8s
Overall bit rate : 3 382 Kbps
Encoded date : UTC 2010-06-15 14:05:19
Writing application : mkvmerge v3.0.0 ('Hang up your Hang-Ups') built on Dec 12 2009 15:20:35
Writing library : libebml v0.7.9 + libmatroska v0.8.1
Video #1
ID : 1
Format : AVC
Format/Info : Advanced Video Codec
Format profile : [email protected]
Format settings, CABAC : Yes
Format settings, ReFrames : 4 frames
Muxing mode : Container [email protected]
Codec ID : V_MPEG4/ISO/AVC
Duration : 47mn 8s
Bit rate : 3 061 Kbps
Width : 1 280 pixels
Height : 720 pixels
Display aspect ratio : 16:9
Frame rate : 25.000 fps
Color space : YUV
Chroma subsampling : 4:2:0
Bit depth : 8 bits
Scan type : Progressive
Bits/(Pixel*Frame) : 0.133
Stream size : 1 010 MiB (89%)
Writing library : x264 core 88 r1471 1144615
Language : English
Audio #2
ID : 2
Format : AC-3
Format/Info : Audio Coding 3
Mode extension : CM (complete main)
Codec ID : A_AC3
Duration : 47mn 8s
Bit rate mode : Constant
Bit rate : 128 Kbps
Channel(s) : 2 channels
Channel positions : Front: L R
Sampling rate : 48.0 KHz
Stream size : 43.2 MiB (4%)
Language : Russian
Audio #3
ID : 3
Format : AC-3
Format/Info : Audio Coding 3
Mode extension : CM (complete main)
Codec ID : A_AC3
Duration : 47mn 8s
Bit rate mode : Constant
Bit rate : 192 Kbps
Channel(s) : 2 channels
Channel positions : Front: L R
Sampling rate : 48.0 KHz
Stream size : 64.7 MiB (6%)
Language : English



Последний раз редактировалось: DrSOAD (2011-02-21 17:07), всего редактировалось 3 раз(а)
[Профиль]  [ЛС] 

Leha1984

Стаж: 8 лет 7 месяцев

Сообщений: 45

Откуда: Севастополь

Создавать темы 23-Июн-2010 19:17 (спустя 4 минуты)

[Цитировать] 

ура нормально залитая передача, а предыдущий автор пусть слюной захлебнуться ))))
[Профиль]  [ЛС] 

DrSOAD ®

Стаж: 8 лет 7 месяцев

Сообщений: 134

Создавать темы 23-Июн-2010 19:34 (спустя 16 минут)

[Цитировать] 

Leha1984
там же вроде как для друга выложили, а на остальных фиолетово, в архиве тянуть не хотелось, стянул с нета в нормальном качестве... так что будем смотреть с удовольствием az
[Профиль]  [ЛС] 

Leha1984

Стаж: 8 лет 7 месяцев

Сообщений: 45

Откуда: Севастополь

Создавать темы 23-Июн-2010 19:50 (спустя 15 минут)

[Цитировать] 

Огромное ВАМ спасибо
[Профиль]  [ЛС] 

Создавать темы 05-Фев-2011 17:54 (спустя 7 месяцев 11 дней)

Топик был перенесен из форума Discovery в форум Документальные


movement
 

DrSOAD ®

Стаж: 8 лет 7 месяцев

Сообщений: 134

Создавать темы 21-Фев-2011 17:07 (спустя 7 месяцев 27 дней)

[Цитировать] 

снова на раздаче... az
P.S. будет не нужен - удалю
[Профиль]  [ЛС] 

Blondy

Стаж: 8 лет 7 месяцев

Сообщений: 614

Откуда: из сумрака...

Создавать темы 21-Фев-2011 17:23 (спустя 16 минут)

[Цитировать] 

DrSOAD подправьте, пожалуйста, скриншоты. Они не совпадают с данными 1 280 х 720
[Профиль]  [ЛС] 

Martin

Стаж: 8 лет 7 месяцев

Сообщений: 134

Создавать темы 21-Фев-2011 18:09 (спустя 45 минут)

[Цитировать] 

Спасибо! Интересно.
[Профиль]  [ЛС] 

chel

Стаж: 8 лет 7 месяцев

Сообщений: 39

Создавать темы 23-Мар-2011 14:36 (спустя 1 месяц 1 день)

[Цитировать] 

ВОпрос, продолжение будет ?
[Профиль]  [ЛС] 

DrSOAD ®

Стаж: 8 лет 7 месяцев

Сообщений: 134

Создавать темы 23-Мар-2011 19:01 (спустя 4 часа)

[Цитировать] 

chel, надо порыскать, сейчас не готов сказать...
[Профиль]  [ЛС] 

serg1791

Стаж: 5 лет 11 месяцев

Сообщений: 28

Откуда: симферополь

Создавать темы 23-Мар-2011 21:25 (спустя 2 часа 23 минуты)

[Цитировать] 

DrSOAD
Молодца! Спасибо!!!!
[Профиль]  [ЛС] 

DrSOAD ®

Стаж: 8 лет 7 месяцев

Сообщений: 134

Создавать темы 23-Мар-2011 23:05 (спустя 1 час 40 минут)

[Цитировать] 

serg1791, да не за что az
[Профиль]  [ЛС] 

Martin

Стаж: 8 лет 7 месяцев

Сообщений: 134

Создавать темы 24-Мар-2011 08:32 (спустя 9 часов)

[Цитировать] 

DrSOAD
Если найдешь про военную авиацию! Заливай.
[Профиль]  [ЛС] 

DrSOAD ®

Стаж: 8 лет 7 месяцев

Сообщений: 134

Создавать темы 24-Мар-2011 22:54 (спустя 14 часов)

[Цитировать] 

Martin
Договорились ay
[Профиль]  [ЛС] 
Похожие темы
Форум Тема Автор Размер
Документальные Анатомия крупнейших животных. Крокодил / Animal Autopsy. The Crocodile (National Geographic) [2010 г., документальный, HDTVRip] anatolyi100 692 MB
Документальные Супер трава марихуана / National Geographic: Inside Marijuana (Роберт Закин) [2009 г., Научно - популярный, HDTVRip] anatolyi100 591 MB
Показать сообщения:    
Ответить на тему

Текущее время: 10-Дек 21:29

Часовой пояс: UTC + 3



Вы не можете начинать темы
Вы не можете отвечать на сообщения
Вы не можете редактировать свои сообщения
Вы не можете удалять свои сообщения
Вы не можете голосовать в опросах
Вы не можете прикреплять файлы к сообщениям
Вы не можете скачивать файлы