Тайны Смолвиля / Smallville / Сезон: 10 / Серии:1-16 (22) (Кевин Фэир) [2010, Фантастика, драма, HDTVRip](OneFilmTV)

Ответить на тему
Статистика раздачи [Обновить пиров]
Нет
 
   
 
 
Автор
Сообщение

Clarck ®

Стаж: 7 лет 11 месяцев

Сообщений: 289

Откуда: from Verbluda

Создавать темы 09-Ноя-2010 20:37

[Цитировать] 

Тайны Смолвиля
Год выпуска: 2010
Страна: США
Жанр: Фантастика, драма
Продолжительность: ~42
Перевод: любительский многоголосый закадровый
Русские субтитры: нет
Субтитры: отсутствуют-Режиссёр: Кевин Фэир
В ролях: Том Уэллинг (Tom Welling), Эрика Дьюрэнс (Erica Durance), Эллисон Мэк (Allison Mack), Кессиди Фримэн (Cassidy Freeman), Джон Шнайдер (John Schneider), Джастин Хартли (Justin Hartley), Джон Гловер (John Glover)-Описание: 1989 год, метеоритный дождь в городе Смолвиль наносит невиданные разрушения, а в бездетной семье жителей Смолвиля странным образом появляется маленький ребёнок — Кларк Кент.
Прошло много лет. Кларк уже учится в школе. Его ошеломляющие способности заставляют его чаще задуматься о том, кто он собственно такой. К тому же он влюблен в одноклассницу — Лана Лэнг, чьи родители пропали во время метеоритного дождя. Этот фактор значительно осложняет их отношения. Внимательные родители Кларка пытаются любым путём сберечь его секрет, даже возбраняют ему выступать в школьной футбольной команде.
Однажды Кларк спас жизнь молодого бизнесмена Лекса Лютера, когда машина бизнесмена, потеряв управление, падает с моста в реку. С этого обстоятельства и завязывается череда многообразных похождений супермена — Кларка Кента.
Доп. информация: Озвучила релиз-группа:
Качество: HDTVRip
Формат: AVI
Видео кодек: XviD
Аудио кодек: MP3
Видео: 624x352 (1.77:1), 23.976 fps, XviD MPEG-4 ~1044 kbps avg, 0.20 bit/pixel
Аудио: 48 kHz, MPEG Layer 3, 2 ch, ~128.00 kbps avg

MI

Format : AVI
Format/Info : Audio Video Interleave
File size : 353 MiB
Duration : 41mn 48s
Overall bit rate : 1 172 Kbps
Writing application : MEncoder SVN-r30531-4.3.2
Writing library : MPlayer
Video
ID : 0
Format : MPEG-4 Visual
Format profile : Advanced [email protected]
Format settings, BVOP : Yes
Format settings, QPel : No
Format settings, GMC : No warppoints
Format settings, Matrix : Default (H.263)
Codec ID : XVID
Codec ID/Hint : XviD
Duration : 41mn 48s
Bit rate : 1 030 Kbps
Width : 624 pixels
Height : 352 pixels
Display aspect ratio : 16:9
Frame rate : 23.976 fps
Color space : YUV
Chroma subsampling : 4:2:0
Bit depth : 8 bits
Scan type : Progressive
Bits/(Pixel*Frame) : 0.196
Stream size : 308 MiB (88%)
Writing library : XviD 1.2.1 (UTC 2008-12-04)
Audio
ID : 1
Format : MPEG Audio
Format version : Version 1
Format profile : Layer 3
Mode : Joint stereo
Mode extension : MS Stereo
Codec ID : 55
Codec ID/Hint : MP3
Duration : 41mn 48s
Bit rate mode : Variable
Bit rate : 128 Kbps
Channel(s) : 2 channels
Sampling rate : 48.0 KHz
Stream size : 38.5 MiB (11%)
Alignment : Aligned on interleaves
Interleave, duration : 24 ms (0.58 video frame)
Interleave, preload duration : 506 ms

Скриншоты

Доп. информация к озвучке

Озвучка: 5 голосов
Кларка - SPN
Оливера - kifton
Хлою - CECTPA
Лоис - CECTPA
Тесс - archi
Отец и злые герои - Cristh
1) Голоса, замечателые голоса, приятные уху.
2) Звуковые эфекты ( эхо, 8000Гц(телефон, рация))
3) Эмоции- передовались хорошо"


Последний раз редактировалось: Clarck (2011-03-07 18:05), всего редактировалось 10 раз(а)
[Профиль]  [ЛС] 

1hz

Стаж: 7 лет 5 месяцев

Сообщений: 4

Создавать темы 13-Ноя-2010 00:23 (спустя 3 дня)

[Цитировать] 

Спасибо. Дальше сюда будешь заливать остальные серии?


Последний раз редактировалось: 1hz (2010-11-13 00:23), всего редактировалось 1 раз
[Профиль]  [ЛС] 

Clarck ®

Стаж: 7 лет 11 месяцев

Сообщений: 289

Откуда: from Verbluda

Создавать темы 14-Ноя-2010 17:26 (спустя 1 день 17 часов)

[Цитировать] 

да
добавлено спустя 35 минут:
Добавлена 8-я серия. Приятного просмотра.


Последний раз редактировалось: Clarck (2010-11-14 17:21), всего редактировалось 1 раз
[Профиль]  [ЛС] 

Clarck ®

Стаж: 7 лет 11 месяцев

Сообщений: 289

Откуда: from Verbluda

Создавать темы 25-Ноя-2010 21:59 (спустя 11 дней)

[Цитировать] 


Добавлена 9-я серия. Приятного просмотра.
[Профиль]  [ЛС] 

Clarck ®

Стаж: 7 лет 11 месяцев

Сообщений: 289

Откуда: from Verbluda

Создавать темы 28-Ноя-2010 20:35 (спустя 2 дня 22 часа)

[Цитировать] 

[Профиль]  [ЛС] 

Clarck ®

Стаж: 7 лет 11 месяцев

Сообщений: 289

Откуда: from Verbluda

Создавать темы 14-Дек-2010 16:36 (спустя 15 дней)

[Цитировать] 

Добавлена 10-я серия. Приятного просмотра. -Добавлена 11-я серия. Приятного просмотра. -Добавлена 12-я серия. Приятного просмотра.


Последний раз редактировалось: Clarck (2010-12-14 16:36), всего редактировалось 1 раз
[Профиль]  [ЛС] 

Clarck ®

Стаж: 7 лет 11 месяцев

Сообщений: 289

Откуда: from Verbluda

Создавать темы 07-Мар-2011 18:02 (спустя 2 месяца 24 дня)

[Цитировать] 

Добавлена 13-я серия. Приятного просмотра.-Добавлена 14-я серия. Приятного просмотра.-Добавлена 15-я серия. Приятного просмотра.-Добавлена 16-я серия. Приятного просмотра. -
[Профиль]  [ЛС] 
Похожие темы
Форум Тема Автор Размер
Зарубежное кино 13 часов: Тайные солдаты Бенгази / 13 Hours: The Secret Soldiers of Benghazi (2016) BDRip 720p | D | Line Тоха™ 7,86 GB
FPS (1st Person) S.T.A.L.K.E.R: Shadow of Chernobyl - Тайные Тропы 2 (2011) PC | RePack от SeregA_Lus (2011) (antreg & dimos при непосредственном участии Erlik (Garry_Galler) & Stalk15, а также gruber) ... Clieft 3,39 GB
HD Тайны исповеди / True Confessions [Улу Гросбард] (1981 г., Драма, криминал, BDRip 720p) MVO, DVO mihis 5,5 GB
Книги Тайны Севастополя. Кн.1. Тайны земные / Кн.2. Тайны подземные. NIGGA 61 MB
Отечественные сериалы Тайны следствия [S14 Серии: 1-16 из 16] (Ольга Кандидатова) (2014, детектив, драма, криминал, HDTVRip) anatolyi100 8,6 GB
Зарубежные сериалы Тайны Смолвиля / Smallville [S01-10] (2001-2011) DVDRip, HDTVRip -=DoC(ToP)=-™ 75,1 GB
Показать сообщения:    
Ответить на тему

Текущее время: 04-Дек 17:13

Часовой пояс: UTC + 3



Вы не можете начинать темы
Вы не можете отвечать на сообщения
Вы не можете редактировать свои сообщения
Вы не можете удалять свои сообщения
Вы не можете голосовать в опросах
Вы не можете прикреплять файлы к сообщениям
Вы не можете скачивать файлы