Тихий омут (Егор Анашкин) [2010 г., Триллер, SATRip]

Ответить на тему
Статистика раздачи [Обновить пиров]
Нет
 
   
 
 
Автор
Сообщение

Фунтик ®

Стаж: 8 лет 7 месяцев

Сообщений: 316

Откуда: из прошлого века

Создавать темы 14-Ноя-2010 19:48

[Цитировать] 

Тихий омут
Год выпуска: 2010
Жанр: Триллер
Продолжительность: 01:27:22
Режиссер: Егор Анашкин
В ролях: Александр Голубев, Светлана Антонова, Анна Уколова, Игорь Сигов

Недавно красавица Саша потеряла мужа. Его трагическую гибель она переживает очень тяжело...
После похорон безутешную вдову поддерживает близкий друг погибшего, Максим, давно в нее влюбленный. Но Сашу это не очень радует. Вместо того чтобы переложить все проблемы на плечи сильного и преданного мужчины, Саша уезжает из города, никому ничего не сказав. Она пропадает на долгие шесть лет...
Прошло шесть лет. Александра по-прежнему одинока - по сравнению с погибшим мужем все мужчины кажутся ей пресными, неинтересными, недостойными внимания. Однажды вместе с подругой Юлей она едет отдохнуть в загородный пансионат. Юля обещает приятельнице приятный сюрприз на отдыхе. "Сюрпризом" оказывается... Максим. Он теперь женат, у него дочка Маша, но, похоже, семейная жизнь не задалась и его чувства к Саше остались прежними…
Качество: SATRip
Формат: AVI
Видео: 704x400 (1.76:1), 25 fps, XviD build 55~2250 kbps avg, 0.32 bit/pixel
Аудио: 48kHz, MPEG Layer 3, 2 ch, ~128.00 kbps avg

MediaInfo

Complete name : F:\TORENTRAZDACHI\Тихий омут_SATRip by CLIPMAN.avi
Format : AVI
Format/Info : Audio Video Interleave
File size : 1.46 GiB
Duration : 1h 27mn
Overall bit rate : 2 389 Kbps
Writing application : VirtualDubMod 1.5.10.3 | www.virtualdub-fr.org || (build 2550/release)
Writing library : VirtualDubMod build 2550/release
Video
ID : 0
Format : MPEG-4 Visual
Format profile : Advanced [email protected]
Format settings, BVOP : Yes
Format settings, QPel : No
Format settings, GMC : No warppoints
Format settings, Matrix : Default (MPEG)
Codec ID : XVID
Codec ID/Hint : XviD
Duration : 1h 27mn
Bit rate : 2 251 Kbps
Width : 704 pixels
Height : 400 pixels
Display aspect ratio : 16:9
Frame rate : 25.000 fps
Color space : YUV
Chroma subsampling : 4:2:0
Bit depth : 8 bits
Scan type : Progressive
Bits/(Pixel*Frame) : 0.320
Stream size : 1.37 GiB (94%)
Writing library : XviD 1.3.0.dev55
Audio
ID : 1
Format : MPEG Audio
Format version : Version 1
Format profile : Layer 3
Codec ID : 55
Codec ID/Hint : MP3
Duration : 1h 27mn
Bit rate mode : Constant
Bit rate : 128 Kbps
Channel(s) : 2 channels
Sampling rate : 48.0 KHz
Stream size : 80.0 MiB (5%)
Alignment : Aligned on interleaves
Interleave, duration : 40 ms (1.00 video frame)
Interleave, preload duration : 504 ms
Writing library : LAME3.98r

Скриншоты




[Профиль]  [ЛС] 
Похожие темы
Форум Тема Автор Размер
Отечественные сериалы Тихий Дон (1-14 серии из 14) (Сергей Урсуляк) [2015 г., Драма, SATRip] mihis 8,22 GB
HD Тихий Дон [01-14 из 14] (2015) HDTVRip 720p от MediaClub Олег_SevStar 21,78 GB
HD Тихий океан (Тихоокеанский фронт) / The Pacific (1-10 серии из 10) (Джереми Подесва, Тимоти Ван Паттен, Дэвид Наттер) [2010 г., Исторический, драма, военный, BDRip 720p] MVO,DVO mihis 21,83 GB
Показать сообщения:    
Ответить на тему

Текущее время: 10-Дек 23:24

Часовой пояс: UTC + 3



Вы не можете начинать темы
Вы не можете отвечать на сообщения
Вы не можете редактировать свои сообщения
Вы не можете удалять свои сообщения
Вы не можете голосовать в опросах
Вы не можете прикреплять файлы к сообщениям
Вы не можете скачивать файлы