Власов: один генерал - две армии (Александр Радов) [1997 г., история, документальный, военный, DVDRip]

Ответить на тему
Статистика раздачи [Обновить пиров]
Нет
 
   
 
 
Автор
Сообщение

amadeus1975 ®

Стаж: 8 лет 1 месяц

Сообщений: 387

Создавать темы 22-Фев-2011 16:29

[Цитировать] 

Власов: один генерал - две армии
Год выпуска: 1997
Страна: Россия,Телекомпания "Жизнь"
Жанр: история, документальный, военный
Продолжительность: 00:38:52
Перевод: Не требуется
Режиссер: Александр Радов
Продюсер: Александр Радов
В ролях: Кирилл Александров(историк),Донад Жеребов(военный историк),Отец Александр(быший полковой священник РОА),исторические хроники,документы.
Описание: Этот документальный фильм рассказывает о трагической гибели 2-ой Ударной Армии и о трагедии РОА - Русской Освободительной Армии.
Кроме редкой кинохроники тех лет, где показаны части РОА и генерал Власов, фильм содержит интервью с протопресвитером о. Александром Киселевым, автором книги "Духовный облик генерала Власова" и духовником командующего ВС КОНР, историком К. Александровым - автором книг о генерале Власове и РОА, а также другие редкие интервью и кадры…
Доп. информация: Эта раздача подготовлена на основе релиза пользователя Rutrackera Dmss83. Большое ему Спасибо!
Качество: DVDRip
Формат: AVI
Видео кодек: XviD
Аудио кодек: MP3
Видео: Xvid 512x384 25.00fps 1306kbps [Video 0]
Аудио: MPEG Audio Layer 3 48000Hz stereo 119kbps [Audio 1]

Media info

General
Complete name : E:\ЗАГРУЗКИ UTorrent\Vlasov.Odin_general_-_dve_armii\Vlasov.Odin_general_-_dve_armii.avi
Format : AVI
Format/Info : Audio Video Interleave
File size : 400 MiB
Duration : 38mn 52s
Overall bit rate : 1 439 Kbps
Writing application : VirtualDubMod 1.5.4.1 (build 2178/release)
Writing library : VirtualDubMod build 2178/release
Video
ID : 0
Format : MPEG-4 Visual
Format profile : Advanced [email protected]
Format settings, BVOP : Yes
Format settings, QPel : No
Format settings, GMC : No warppoints
Format settings, Matrix : Custom
Codec ID : XVID
Codec ID/Hint : XviD
Duration : 38mn 52s
Bit rate : 1 306 Kbps
Width : 512 pixels
Height : 384 pixels
Display aspect ratio : 4:3
Frame rate : 25.000 fps
Color space : YUV
Chroma subsampling : 4:2:0
Bit depth : 8 bits
Scan type : Progressive
Compression mode : Lossy
Bits/(Pixel*Frame) : 0.266
Stream size : 363 MiB (91%)
Writing library : XviD 1.1.0 (UTC 2005-11-22)
Audio
ID : 1
Format : MPEG Audio
Format version : Version 1
Format profile : Layer 3
Mode : Joint stereo
Mode extension : MS Stereo
Codec ID : 55
Codec ID/Hint : MP3
Duration : 38mn 52s
Bit rate mode : Variable
Bit rate : 119 Kbps
Nominal bit rate : 128 Kbps
Channel(s) : 2 channels
Sampling rate : 48.0 KHz
Compression mode : Lossy
Stream size : 33.2 MiB (8%)
Alignment : Aligned on interleaves
Interleave, duration : 24 ms (0.60 video frame)
Interleave, preload duration : 547 ms
Writing library : LAME3.97
Encoding settings : -m j -V 4 -q 2 -lowpass 17 --abr 128

Итересная информация о Власове

http://bibliotekar.ru/general-vlasov/index.htm
[thumbnails]http://images.sevstar.net/images/53692201157875921016.jpg [/thumbnails][thumbnails]http://images.sevstar.net/images/47138806954037802474.jpg [/thumbnails][thumbnails] http://images.sevstar.net/images/39673612383690497982.jpg[/thumbnails]Вот еще три фильма на эту тему:
"Власов: один генерал - две армии"---http://sevtracker.org/viewtopic.php?p=493173#493173
"Досье на генерала "Власова---http://video.yandex.ru/users/osvag/view/15/user-tag/власовцы/
Власов. Дважды проклятый генерал---http://sevtracker.org/viewtopic.php?p=493341#493341
[Профиль]  [ЛС] 
Похожие темы
Форум Тема Автор Размер
Отечественные сериалы Вечный отпуск / Сезон: 1 / Серии: 1-24 из 24 (Валентина Власова) [2016, Комедия, SATRip] Олег_SevStar 7,96 GB
Отечественные сериалы Второй убойный [Серии: 01-16 из 16] (Святослав Власов) [2012 г., детектив, криминальный фильм, SATRip] anatolyi100 8,59 GB
Показать сообщения:    
Ответить на тему

Текущее время: 04-Дек 09:05

Часовой пояс: UTC + 3



Вы не можете начинать темы
Вы не можете отвечать на сообщения
Вы не можете редактировать свои сообщения
Вы не можете удалять свои сообщения
Вы не можете голосовать в опросах
Вы не можете прикреплять файлы к сообщениям
Вы не можете скачивать файлы