Власов. Дважды проклятый генерал (Инго Бетке, Павел Сергеев) [1995 г., история, документальный, военный, SATRip]

Ответить на тему
Статистика раздачи [Обновить пиров]
Нет
 
   
 
 
Автор
Сообщение

amadeus1975 ®

Стаж: 8 лет 1 месяц

Сообщений: 387

Создавать темы 22-Фев-2011 17:43

[Цитировать] 

Власов. Дважды проклятый генерал
Год выпуска: 1995
Страна: Россия,Германия
Жанр: история, документальный, военный
Продолжительность: 00:59:10
Перевод: Профессиональный (двухголосый)
Режиссер: Инго Бетке, Павел Сергеев
Продюсер: Хуго Панчак,Вернер Климм
Сценарий: Инго Бетке, Павел Сергеев
В ролях: офицеры Красной армии, офицеры Германской и Британской армий, члены Русской Освободительной армии /РОА/, дипломаты и другие участники событий тех лет.
Описание: Предатель или борец с тоталитарным режимом?
Изменник или один из немногих, кто решил противостоять власти?
Много подобных вопросов возникает, когда начинаешь знакомиться с документами о деятельности генерала Власова.
Да, это трагедия человека, трагедия целой армии, трагедия народа. До сих пор документалистика обходила стороной эту тему.
Доп. информация: Эта раздача подготовлена на основерелиза пользователя Rutrackera ---animaks. Большое ему Спасибо!
Качество: SATRip
Формат: AVI
Видео кодек: XviD
Аудио кодек: MP3
Видео: Xvid 640x480 25.00fps 1585kbps [Video 0]
Аудио: MPEG Audio Layer 3 48000Hz mono 64kbps [Audio 1]

Media info

General
Complete name : E:\ЗАГРУЗКИ UTorrent\Vlasov.Dvazhdy.prokljatyj.general.avi
Format : AVI
Format/Info : Audio Video Interleave
File size : 702 MiB
Duration : 59mn 10s
Overall bit rate : 1 659 Kbps
Writing application : VirtualDubModRus 1.5.10.2 (build 2542/release)
Writing library : VirtualDubMod build 2542/release
Video
ID : 0
Format : MPEG-4 Visual
Format profile : Advanced [email protected]
Format settings, BVOP : Yes
Format settings, QPel : No
Format settings, GMC : No warppoints
Format settings, Matrix : Default (MPEG)
Muxing mode : Packed bitstream
Codec ID : XVID
Codec ID/Hint : XviD
Duration : 59mn 10s
Bit rate : 1 586 Kbps
Width : 640 pixels
Height : 480 pixels
Display aspect ratio : 4:3
Frame rate : 25.000 fps
Color space : YUV
Chroma subsampling : 4:2:0
Bit depth : 8 bits
Scan type : Progressive
Compression mode : Lossy
Bits/(Pixel*Frame) : 0.206
Stream size : 671 MiB (96%)
Writing library : XviD 1.2.0.dev47 (UTC 2006-11-01)
Audio
ID : 1
Format : MPEG Audio
Format version : Version 1
Format profile : Layer 3
Codec ID : 55
Codec ID/Hint : MP3
Duration : 59mn 10s
Bit rate mode : Constant
Bit rate : 64.0 Kbps
Channel(s) : 1 channel
Sampling rate : 48.0 KHz
Compression mode : Lossy
Stream size : 27.1 MiB (4%)
Alignment : Split accross interleaves
Interleave, duration : 40 ms (1.00 video frame)
Interleave, preload duration : 500 ms

Итересная информация о Власове

http://bibliotekar.ru/general-vlasov/index.htm
Вот еще три фильма на эту тему:
"Власов: один генерал - две армии"---http://sevtracker.org/viewtopic.php?p=493173#493173
"Досье на генерала "Власова---http://video.yandex.ru/users/osvag/view/15/user-tag/власовцы/
Из героев - в предатели. Власовцы / Армия Власова: герои или предатели?---http://sevtracker.org/viewtopic.php?t=65958
[Профиль]  [ЛС] 

STokL3R

Стаж: 8 лет 7 месяцев

Сообщений: 48

Откуда: Империя Зла

Создавать темы 22-Фев-2011 19:40 (спустя 1 час 56 минут)

[Цитировать] 

чего воду в ступе толочь? Попытки реабилитировать засранца?
[Профиль]  [ЛС] 

Дмитрий tHeBEST

Стаж: 8 лет 6 месяцев

Сообщений: 783

Откуда: Севастополь

Создавать темы 22-Фев-2011 20:03 (спустя 23 минуты)

[Цитировать] 

чего воду в ступе толочь? Попытки реабилитировать засранца?
Да,фигня,жаль не показывали,что творили нацики на русской земле!!!
[Профиль]  [ЛС] 
Похожие темы
Форум Тема Автор Размер
Отечественные сериалы Вечный отпуск / Сезон: 1 / Серии: 1-24 из 24 (Валентина Власова) [2016, Комедия, SATRip] Олег_SevStar 7,96 GB
Отечественные сериалы Второй убойный [Серии: 01-16 из 16] (Святослав Власов) [2012 г., детектив, криминальный фильм, SATRip] anatolyi100 8,59 GB
Показать сообщения:    
Ответить на тему

Текущее время: 06-Дек 17:03

Часовой пояс: UTC + 3



Вы не можете начинать темы
Вы не можете отвечать на сообщения
Вы не можете редактировать свои сообщения
Вы не можете удалять свои сообщения
Вы не можете голосовать в опросах
Вы не можете прикреплять файлы к сообщениям
Вы не можете скачивать файлы