1942 (серии 1-16 из 16) (2011, Военная драмма, SATRip)

Ответить на тему
Статистика раздачи [Обновить пиров]
Нет
 
   
 
 
Автор
Сообщение

olimpkow ®

Стаж: 6 лет 5 месяцев

Сообщений: 19

Откуда: Луганск-Севастополь

Создавать темы 03-Май-2011 01:17

[Цитировать] 

1942 (серии 1-16 из 16) (2011) SATRip
Год выпуска: 2011
Жанр: военная драма
Продолжительность: 16 х 00:43:30
Режиссер: Валерий Шалыга
В ролях: Владимир Башкиров, Александр Пашков, Юрий Яковлев, Дарья Баранова, Йоханес Габриель, Александр Данильченко
Описание: Ранняя весна 1942 года. В лесу пережил зиму партизанский отряд Григория. Их осталось очень мало: сам Григорий, Муха, несколько мужиков из деревни, несколько красноармейцев. Мало мужчин, но много женщин, детей и стариков. Они не могут вернуться в деревню. В округе свирепствуют каратели - эсесовцы и латышские полицаи. Поэтому выжить они могут только в лесу. Григорий живет с Дашей, а Алена - в одиночестве. Она замкнулась в себе, ведь в жизни у нее сломано все – муж оказался с другой, а тот, кого полюбила – оказался предателем...
Качество: SATRip
Видео кодек: XviD
Аудио кодек: MP3
Видео: 704х400 ~1321 Кбит/с
Аудио: 128 Кбит/с
Релиз группы:

Отчет MediaInfo:

General
Complete name : F:\\1942.(01.serij.iz.16).2011.XviD.SATRip.avi
Format : AVI
Format/Info : Audio Video Interleave
File size : 450 MiB
Duration : 43mn 6s
Overall bit rate : 1 459 Kbps
Writing application : VirtualDubMod 1.5.10.2 (build 2540/release)
Writing library : VirtualDubMod build 2540/release
Video
ID : 0
Format : MPEG-4 Visual
Format profile : [email protected]
Format settings, BVOP : No
Format settings, QPel : No
Format settings, GMC : No warppoints
Format settings, Matrix : Default (H.263)
Codec ID : XVID
Codec ID/Hint : XviD
Duration : 43mn 6s
Bit rate : 1 321 Kbps
Width : 704 pixels
Height : 400 pixels
Display aspect ratio : 16:9
Frame rate : 25.000 fps
Color space : YUV
Chroma subsampling : 4:2:0
Bit depth : 8 bits
Scan type : Progressive
Compression mode : Lossy
Bits/(Pixel*Frame) : 0.188
Stream size : 407 MiB (91%)
Writing library : XviD 1.1.2 (UTC 2006-11-01)
Audio
ID : 1
Format : MPEG Audio
Format version : Version 1
Format profile : Layer 3
Mode : Joint stereo
Mode extension : MS Stereo
Codec ID : 55
Codec ID/Hint : MP3
Duration : 43mn 6s
Bit rate mode : Constant
Bit rate : 128 Kbps
Channel(s) : 2 channels
Sampling rate : 48.0 KHz
Compression mode : Lossy
Stream size : 39.5 MiB (9%)
Alignment : Split accross interleaves
Interleave, duration : 40 ms (1.00 video frame)
Interleave, preload duration : 500 ms

Раздача ведется добавлением новых серий.

Внимание! Раздача ведётся путём добавления новых выпусков; при каждом добавлении создаётся новый торрент.
Чтобы начать докачку нового выпуска, пользователям необходимо сделать следующее:
(1) остановить скачивание,
(2) удалить старый торрент у себя из клиента (старые серии удалять не надо),
(3) скачать новый торрент и запустить его у себя в клиенте вместо старого, при этом указать клиенту путь в старую папку куда и должно происходить скачивание новых выпусков.
Ваш клиент при этом должен произвести хеширование (проверку) старой папки (если не производит сам - помогите ему сделать это). В результате он будет докачивать только те выпуски, которых у Вас ещё нет. Старые выпуски при этом не удаляются, а продолжают раздаваться!
Eсли Вы уже удалили старые выпуски, то предотвратить их повторную закачку можно, сняв галочки в соответствующих местах при запуске нового торрента. По возможности, желательно не удалять старые выпуски как можно дольше, чтобы релизёр не только продолжал раздавать старые выпуски, но и смог сконцентрироваться на новых.
-Начало сюжетной линии сериал "1941"


Последний раз редактировалось: olimpkow (2011-05-07 08:56), всего редактировалось 5 раз(а)
[Профиль]  [ЛС] 

olimpkow ®

Стаж: 6 лет 5 месяцев

Сообщений: 19

Откуда: Луганск-Севастополь

Создавать темы 04-Май-2011 07:13 (спустя 1 день 5 часов)

[Цитировать] 

Добавлена 4,5,6 серии
[Профиль]  [ЛС] 

olimpkow ®

Стаж: 6 лет 5 месяцев

Сообщений: 19

Откуда: Луганск-Севастополь

Создавать темы 05-Май-2011 09:53 (спустя 1 день 2 часа)

[Цитировать] 

Добавлена 7,8,9 серии
[Профиль]  [ЛС] 

Анюта Владимировна @ru

Стаж: 7 лет 2 месяца

Сообщений: 44

Откуда: Севастополь

Создавать темы 05-Май-2011 13:37 (спустя 3 часа)

[Цитировать] 

Как сериал?
[Профиль]  [ЛС] 

19stalker94

Стаж: 6 лет 1 месяц

Сообщений: 1

Создавать темы 05-Май-2011 18:18 (спустя 4 часа)

[Цитировать] 

Сериал супер!!
[Профиль]  [ЛС] 

vadik16

Стаж: 5 лет 11 месяцев

Сообщений: 5

Создавать темы 05-Май-2011 23:49 (спустя 5 часов)

[Цитировать] 

Мне тоже очень нравиться )!!!!!!! aj
[Профиль]  [ЛС] 

olimpkow ®

Стаж: 6 лет 5 месяцев

Сообщений: 19

Откуда: Луганск-Севастополь

Создавать темы 06-Май-2011 00:41 (спустя 52 минуты)

[Цитировать] 

Добавлена 10, 11, 12 серии
[Профиль]  [ЛС] 

olimpkow ®

Стаж: 6 лет 5 месяцев

Сообщений: 19

Откуда: Луганск-Севастополь

Создавать темы 07-Май-2011 08:19 (спустя 1 день 7 часов)

[Цитировать] 

Добавлена 13, 14, 15, 16 серии. Всем приятного просмотра и с ДНЁМ ПОБЕДЫ!!!
[Профиль]  [ЛС] 

Stavr

Стаж: 8 лет 7 месяцев

Сообщений: 20

Откуда: Севастополь

Создавать темы 08-Май-2011 22:39 (спустя 1 день 14 часов)

[Цитировать] 

По ходу продолжение сериала 1941.
[Профиль]  [ЛС] 

крецул

Стаж: 6 лет

Сообщений: 26

Откуда: украина г.севастополь

Создавать темы 09-Май-2011 20:25 (спустя 21 час)

[Цитировать] 

спасибо за фильм о войне
[Профиль]  [ЛС] 

schokk

Стаж: 6 лет 2 месяца

Сообщений: 1

Создавать темы 08-Дек-2011 14:21 (спустя 6 месяцев 29 дней)

[Цитировать] 

а продолжение будит???
[Профиль]  [ЛС] 

olegm211440

Стаж: 6 лет 10 месяцев

Сообщений: 18

Создавать темы 28-Мар-2013 23:02 (спустя 1 год 3 месяца)

[Цитировать] 

раздайте ПОЖАЙЛУСТА!!!
[Профиль]  [ЛС] 
Показать сообщения:    
Ответить на тему

Текущее время: 03-Дек 09:48

Часовой пояс: UTC + 3



Вы не можете начинать темы
Вы не можете отвечать на сообщения
Вы не можете редактировать свои сообщения
Вы не можете удалять свои сообщения
Вы не можете голосовать в опросах
Вы не можете прикреплять файлы к сообщениям
Вы не можете скачивать файлы