Что было до большого взрыва? / BBC: What Happened Before the Big Bang? (BBC Horizon) [2011 г., документальный, научно-популярный, HDTVRip]

Ответить на тему
Статистика раздачи [Обновить пиров]
Нет
 
   
 
 
Автор
Сообщение

Glass ®

Стаж: 6 лет 7 месяцев

Сообщений: 11

Откуда: http://usap.org.ua

Создавать темы 18-Июн-2011 11:47

[Цитировать] 

Что было до Большого взрыва? / BBC:What Happened Before the Big Bang?
Год выпуска: 2011
Страна: Великобритания
Жанр: документальный, научно-популярный
Продолжительность: 00:58:39
Перевод: Любительский (одноголосый), cубтитры: русские
Режиссер: BBC Horizon
Описание: Откуда появилась наша Вселенная? Как это все началось? На протяжении почти ста лет, мы думали, что Большой взрыв был около 14 миллиардов лет назад.
Но теперь некоторые ученые считают, что было на самом деле не "начало"; наша Вселенная, возможно, была уничтожена "до".
Этот фильм унесёт Вас в неизвестность, чтобы изучить головокружительный мир космоса и многочисленных вселенных, и Вы узнаете, что было до Большого взрыва.

Качество: HDTVRip
Формат: MKV
Видео кодек: H.26x
Аудио кодек: AC3
Видео: 1280x720 (16:9), 25 fps, AVC MPEG4 (x264), [email protected], ~4000 kbps avg, 0.174 bit/pixel
Аудио #1: Русский: 48.0 kHz, AC3, 2 ch, ~192 kbps avg [Любительский (одноголосый)]
Аудио #2: Английский: 48.0 kHz, AC3, 2 ch, ~192 kbps avg [Оригинал]

Скриншоты

Допольнительно

Автор озвучки: aty-sasa
Автор субтитров: Dlik
Семпл для оценки качеста озвучки.
-

Медиа данные

Общее
Уникальный идентификатор : 248036018405027646449815165772288992408 (0xBA99FFE01A3CD0A481B31C27537BA49
Формат : Matroska
Размер файла : 1,80 Гбайт
Продолжительность : 58 м.
Общий поток : 4384 Кбит/сек
Дата кодирования : UTC 2011-05-21 21:13:21
Программа кодирования : mkvmerge v4.4.0 ('Die Wiederkehr') сборка от Oct 31 2010 21:52:48
Библиотека кодирования : libebml v1.0.0 + libmatroska v1.0.0
Видео
Идентификатор : 1
Формат : AVC
Формат/Информация : Advanced Video Codec
Профиль формата : [email protected]
Параметр CABAC формата : Да
Параметр ReFrames формата : 4 кадры
Режим смешивания : Header stripping
Идентификатор кодека : V_MPEG4/ISO/AVC
Продолжительность : 58 м.
Битрейт : 4000 Кбит/сек
Ширина : 1280 пикс.
Высота : 720 пикс.
Соотношение сторон : 16:9
Частота кадров : 25,000 кадр/сек
Цветовое пространство : YUV
Подвыборка цветности : 4:2:0
Битовая глубина : 8 бит
Тип развёртки : Прогрессивная
Бит/(Пиксели*Кадры) : 0.174
Размер потока : 1,60 Гбайт (89%)
Библиотека кодирования : x264 core 105 r1732 2b04482
Настройки программы : cabac=1 / ref=4 / deblock=1:0:0 / analyse=0x3:0x113 / me=umh / subme=9 / psy=1 / psy_rd=1.00:0.00 / mixed_ref=1 / me_range=24 / chroma_me=1 / trellis=1 / 8x8dct=1 / cqm=0 / deadzone=21,11 / fast_pskip=0 / chroma_qp_offset=-2 / threads=3 / sliced_threads=0 / nr=0 / decimate=1 / interlaced=0 / constrained_intra=0 / bframes=3 / b_pyramid=0 / b_adapt=1 / b_bias=0 / direct=1 / weightb=1 / open_gop=0 / weightp=2 / keyint=125 / keyint_min=25 / scenecut=40 / intra_refresh=0 / rc_lookahead=40 / rc=2pass / mbtree=1 / bitrate=4000 / ratetol=1.0 / qcomp=0.60 / qpmin=10 / qpmax=51 / qpstep=4 / cplxblur=20.0 / qblur=0.5 / ip_ratio=1.40 / aq=1:1.00
Язык : English
Аудио #1
Идентификатор : 2
Формат : AC-3
Формат/Информация : Audio Coding 3
Расширение режима : CM (complete main)
Режим смешивания : Header stripping
Идентификатор кодека : A_AC3
Продолжительность : 58 м.
Вид битрейта : Постоянный
Битрейт : 192 Кбит/сек
Канал(ы) : 2 канала(ов)
Расположение каналов : Front: L R
Частота : 48,0 КГц
Битовая глубина : 16 бит
Метод сжатия : С потерями
Размер потока : 80,5 Мбайт (4%)
Заголовок : russian_aty-sasa_22.05.2011_rutracker.org
Язык : Russian
Аудио #2
Идентификатор : 3
Формат : AC-3
Формат/Информация : Audio Coding 3
Расширение режима : CM (complete main)
Режим смешивания : Header stripping
Идентификатор кодека : A_AC3
Продолжительность : 58 м.
Вид битрейта : Постоянный
Битрейт : 192 Кбит/сек
Канал(ы) : 2 канала(ов)
Расположение каналов : Front: L R
Частота : 48,0 КГц
Битовая глубина : 16 бит
Метод сжатия : С потерями
Задержка видео : 31 мс.
Размер потока : 80,5 Мбайт (4%)
Заголовок : english
Язык : English
Текст
Идентификатор : 4
Формат : UTF-8
Идентификатор кодека : S_TEXT/UTF8
Идентификатор кодека/Информация : UTF-8 Plain Text
Заголовок : russian_Astra_Stellari_22.05.2011_rutracker.org
Язык : Russian
-
[Профиль]  [ЛС] 

Bahr

Стаж: 7 лет 2 месяца

Сообщений: 3

Создавать темы 14-Авг-2011 22:35 (спустя 1 месяц 26 дней)

[Цитировать] 

Народ встаньте пожалуйста на раздачу


Последний раз редактировалось: Bahr (2011-08-14 22:35), всего редактировалось 4 раз(а)
[Профиль]  [ЛС] 
Показать сообщения:    
Ответить на тему

Текущее время: 09-Дек 12:38

Часовой пояс: UTC + 3



Вы не можете начинать темы
Вы не можете отвечать на сообщения
Вы не можете редактировать свои сообщения
Вы не можете удалять свои сообщения
Вы не можете голосовать в опросах
Вы не можете прикреплять файлы к сообщениям
Вы не можете скачивать файлы