Записки экспедитора тайной канцелярии / 2 сезон / 8 серий из 8 (Олег Рясков) [2011 г., Детектив,история,приключения, DVDRip]

Ответить на тему
Статистика раздачи [Обновить пиров]
Буду качать: [ 1 ]
 
   
 
 
Автор
Сообщение

amadeus1975 ®

Стаж: 8 лет 1 месяц

Сообщений: 389

Создавать темы 25-Июн-2011 15:53

[Цитировать] 

Записки экспедитора тайной канцелярии / 2 сезон / 8 серий из 8

Год выпуска: 2011
Страна: Россия, BFT Movie, ВГТРК
Жанр: Детектив,история,приключения
Продолжительность: 8 серий х ~43 минуты
Перевод: Не требуется
Режиссер: Олег Рясков
Продюсер: Николай Суров,Екатерина Ефанова,Олег Рясков
Сценарий: Олег Рясков
Бюджет: 87 000 000 руб.
В ролях: Сергей Чонишвили, Анна Снаткина, Илья Соколовский, Петр Красилов, Михаил Полицеймако, Екатерина Редникова, Марина Могилевская, Андрей Чубченко, Дарья Мельникова, Александр Гришин, Анастасия Горькова, Максим Дахненко, Александр Стариков, Анна Старшенбаум, Юрий Васильев, Елена Супруненко
Описание: События происходят после смерти Петра Первого. Морской офицер Семен Плахов обвинен в убийстве фискального чиновника. Начальник тайной розыскной канцелярии Ушаков посылает этого офицера с важным поручением, освобождая его из-под стражи. С этого момента начинаются морские приключения. Во втором сезоне фильма присутствуют наряду с новыми героями герои первого сезона. Герои кинофильма побывают в Лондоне, в Новом Свете. Им предстоит сражаться с пиратами, побывать в плену у индейцев. Герои попытаются спасти от позорного рабства красавицу, которую беспутный братец проиграет в карты.
Качество: DVDRip
Видео: Video: Xvid 720x400 25.00fps 1278kbps [Video 0]
Аудио: Dolby AC3 48000Hz 6ch 448kbps [Audio 1]
1 сезон(8 серий)

MediaInfo

General
Complete name : F:\Merged Volume 'VIDEO' (E)\ЗАГРУЗКИ UTorrent\Zapiski ekspeditora Tainoi kantselyarii-2. .DVDRip\Sezon2.seriya8.avi
Format : AVI
Format/Info : Audio Video Interleave
File size : 569 MiB
Duration : 44mn 13s
Overall bit rate : 1 798 Kbps
Writing application : VirtualDubMod 1.5.10.3 | www.virtualdub-fr.org || (build 2550/release)
Writing library : VirtualDubMod build 2550/release
Video
ID : 0
Format : MPEG-4 Visual
Format profile : Advanced [email protected]
Format settings, BVOP : 1
Format settings, QPel : No
Format settings, GMC : No warppoints
Format settings, Matrix : Custom
Codec ID : XVID
Codec ID/Hint : XviD
Duration : 44mn 13s
Bit rate : 1 340 Kbps
Width : 720 pixels
Height : 400 pixels
Display aspect ratio : 16:9
Frame rate : 25.000 fps
Color space : YUV
Chroma subsampling : 4:2:0
Bit depth : 8 bits
Scan type : Progressive
Compression mode : Lossy
Bits/(Pixel*Frame) : 0.186
Stream size : 424 MiB (75%)
Writing library : XviD 1.2.1 (UTC 2008-12-04)
Audio
ID : 1
Format : AC-3
Format/Info : Audio Coding 3
Mode extension : CM (complete main)
Codec ID : 2000
Duration : 44mn 13s
Bit rate mode : Constant
Bit rate : 448 Kbps
Channel(s) : 6 channels
Channel positions : Front: L C R, Side: L R, LFE
Sampling rate : 48.0 KHz
Bit depth : 16 bits
Compression mode : Lossy
Stream size : 142 MiB (25%)
Alignment : Split accross interleaves
Interleave, duration : 40 ms (1.00 video frame)
Interleave, preload duration : 500 ms
Релиз группы:
[Профиль]  [ЛС] 

amadeus1975 ®

Стаж: 8 лет 1 месяц

Сообщений: 389

Создавать темы 25-Июн-2011 22:43 (спустя 6 часов)

[Цитировать] 

3`090`401.59 USD
Очень хорошо получилось!Эдакие "Пираты Карибского моря "(Бюджет:
$250 000 000) по русски+ "Эраст Фандорин" ($4 000 000) Акунина!
ab
[Профиль]  [ЛС] 

DeaDie

Стаж: 8 лет 7 месяцев

Сообщений: 12

Создавать темы 27-Ноя-2011 02:15 (спустя 5 месяцев 1 день)

[Цитировать] 

отличное кино получилось. посмотрел с удовольствием! хоть и не люблю сериалы и русские фильмы. кто нибудь знает, третий сезон будет ?
[Профиль]  [ЛС] 
Похожие темы
Форум Тема Автор Размер
Аудиокниги Чарльз Диккенс - "Посмертные записки Пиквикского клуба" Oldket 2,52 GB
Показать сообщения:    
Ответить на тему

Текущее время: 11-Дек 14:51

Часовой пояс: UTC + 3



Вы не можете начинать темы
Вы не можете отвечать на сообщения
Вы не можете редактировать свои сообщения
Вы не можете удалять свои сообщения
Вы не можете голосовать в опросах
Вы не можете прикреплять файлы к сообщениям
Вы не можете скачивать файлы