Секс и Дзен: Экстремальный экстаз 3Д / 3D rou pu tuan zhi ji le bao jian (Кристофер Сунь Лэп Ки / Christopher Sun Lap Key) [2011, эротика, драма, HDrip, 720p] Anaglyph Dubois / Анаглиф Дюбуа

Ответить на тему
Статистика раздачи [Обновить пиров]
Нет
 
   
 
 
Автор
Сообщение

Clarck ®

Стаж: 7 лет 11 месяцев

Сообщений: 289

Откуда: from Verbluda

Создавать темы 05-Окт-2011 17:29

[Цитировать] 

Секс и Дзен 3D / 3D rou pu tuan zhi ji le bao jian
Год выпуска: 2011
Страна: 3D
Жанр: для взрослых, драма
Продолжительность: 129 мин.
Режиссер: Кристофер Сунь Лэп Ки
Продюсер: Стефен Сиу, Стивен Сиу мл.
Сценарий: Стефен Сиу, Марк Ву, Ю Ли
Бюджет: $2 580 000
Премьера в мире: 14 апреля 2011
Описание: Главный герой мечтает познать все сексуальные удовольствия. Он отправляется в Замок Разврата, чтобы познать желание, страсть, наслаждение, научиться удовлетворять и дарить удовольствие.
Качество: HDrip
Контейнер: MKV
Формат 3D: Анаглиф red-cyan (Дюбуа)
Видео кодек: х264
Аудио кодек: AC3
Видео: MPEG4 Video (H264) 1280x720 23.98fp 6878 Kbps
Аудио: Русский / Многоголосый, Dolby AC3 48000Hz 6ch 448 Kbps
Аудио 2: Китайский / Оригинал, Dolby AC3 48000Hz 6ch 448 Kbps
Субтитры: English

MediaInfo

General
Format : Matroska
File size : 6.26 GiB
Duration : 1h 52mn
Overall bit rate : 7 932 Kbps
Encoded date : UTC 2011-09-26 11:58:52
Writing application : mkvmerge v4.4.0 ('Die Wiederkehr') сборка от Oct 31 2010 21:52:48
Writing library : libebml v1.0.0 + libmatroska v1.0.0
Video
ID : 1
Format : AVC
Format/Info : Advanced Video Codec
Format profile : [email protected]
Format settings, CABAC : Yes
Format settings, ReFrames : 4 frames
Codec ID : V_MPEG4/ISO/AVC
Duration : 1h 52mn
Bit rate : 6 878 Kbps
Width : 1 280 pixels
Height : 720 pixels
Display aspect ratio : 16:9
Frame rate : 23.976 fps
Color space : YUV
Chroma subsampling : 4:2:0
Bit depth : 8 bits
Scan type : Progressive
Bits/(Pixel*Frame) : 0.311
Stream size : 5.43 GiB (87%)
Writing library : x264 core 115 r1995 c1e60b9
Encoding settings : cabac=1 / ref=4 / deblock=1:-2:-2 / analyse=0x3:0x113 / me=umh / subme=7 / psy=1 / psy_rd=1.00:0.15 / mixed_ref=1 / me_range=16 / chroma_me=1 / trellis=2 / 8x8dct=1 / cqm=0 / deadzone=21,11 / fast_pskip=1 / chroma_qp_offset=-3 / threads=6 / sliced_threads=0 / nr=0 / decimate=1 / interlaced=0 / bluray_compat=0 / constrained_intra=0 / bframes=6 / b_pyramid=0 / b_adapt=2 / b_bias=0 / direct=3 / weightb=1 / open_gop=0 / weightp=2 / keyint=250 / keyint_min=23 / scenecut=40 / intra_refresh=0 / rc_lookahead=40 / rc=crf / mbtree=1 / crf=18.0 / qcomp=0.60 / qpmin=10 / qpmax=69 / qpstep=4 / ip_ratio=1.40 / aq=1:1.00
Audio #1
ID : 2
Format : AC-3
Format/Info : Audio Coding 3
Mode extension : CM (complete main)
Codec ID : A_AC3
Duration : 1h 52mn
Bit rate mode : Constant
Bit rate : 448 Kbps
Channel(s) : 6 channels
Channel positions : Front: L C R, Side: L R, LFE
Sampling rate : 48.0 KHz
Bit depth : 16 bits
Compression mode : Lossy
Stream size : 362 MiB (6%)
Language : Russian
Audio #2
ID : 3
Format : AC-3
Format/Info : Audio Coding 3
Mode extension : CM (complete main)
Codec ID : A_AC3
Duration : 1h 52mn
Bit rate mode : Constant
Bit rate : 448 Kbps
Channel(s) : 6 channels
Channel positions : Front: L C R, Side: L R, LFE
Sampling rate : 48.0 KHz
Bit depth : 16 bits
Compression mode : Lossy
Stream size : 362 MiB (6%)
Language : Chinese
Text
ID : 4
Format : PGS
Muxing mode : zlib
Codec ID : S_HDMV/PGS
Codec ID/Info : The same subtitle format used on BDs/HD-DVDs
Language : English
[Профиль]  [ЛС] 
Показать сообщения:    
Ответить на тему

Текущее время: 03-Дек 14:37

Часовой пояс: UTC + 3



Вы не можете начинать темы
Вы не можете отвечать на сообщения
Вы не можете редактировать свои сообщения
Вы не можете удалять свои сообщения
Вы не можете голосовать в опросах
Вы не можете прикреплять файлы к сообщениям
Вы не можете скачивать файлы