Барака / Baraka (Рон Фрике / Ron Fricke) [1992 г., Документальный, BDRip ]

Ответить на тему
Статистика раздачи [Обновить пиров]
Нет
 
   
 
 
Автор
Сообщение

SHAMAN665 ®

Стаж: 7 лет 2 месяца

Сообщений: 627

Откуда: мой адрес не дом и не улица ...

Создавать темы 20-Янв-2012 00:06

[Цитировать] 

-Барака / Baraka
«A world beyond words.»

Год выпуска: 1992
Страна: США
Жанр: Документальный
Продолжительность: 01:37:49.014
Перевод: Не требуется
Cубтитры: отсутствуют-Режиссер: Рон Фрике
Продюсер: Марк Магидсон, Элтон Валпоул
Сценарий: Константин Николас, Женев Николас-Бюджет: $4 000 000
Премьера в мире: 15 сентября 1992- 8.30 (13 111)

Описание:
Описать Бараку сложно. Культовый фильм. Шедевр невербального воздействия на бессознательное. Мир за гранью слов, нечто с захватывающим визуальным рядом и фантастическим звуковым оформлением. Это документалка о природе, планете Земля и о нас с вами. Это непрерывный видеоряд, в который вошли потрясающие кадры красивейших мест Земли, необычные ритуальные обряды различных племен, съемки жизни в городе и многое другое. Съемки Бараки проводились в 24 странах мира, на нее угробили кучу денег и несколько лет. И надо признать, что вложения окупились - документалка действительно вышла захватывающей, она что-то затрагивает в душе, когда смотришь на прекрасные кадры живой природы, или съемки какого-нибудь далекого городишка... И все это под соответствующее звуковое оформление, которое еще больше привязывает к экрану. Барака действительно стоит того, чтобы ее посмотрели. Хотя бы раз. Результат потрясающий…-Качество: BDRip
Формат: MKV
Видео кодек: AVC
Аудио кодек: DTS
Видео: AVC, 11.0 Mbps, 1920 x 876, 2.2:1, 23.976 fps
Аудио: DTS, 6 channels, 3/2.1, 1 510 Kbps, 48.0 KHz
-

Знаете ли Вы, что...

- -

MediaInfo

General
Unique ID                                : 231382320670963597104208367802475755322 (0xAE129D2EFC74BEE58009034D8FF2373A)
Complete name                            : ...\Baraka.1992.1080p.BluRay.DTS.x264-PerfectionHD.mkv
Format                                   : Matroska
Format version                           : Version 1
File size                                : 8.69 GiB
Duration                                 : 1h 37mn
Overall bit rate                         : 12.7 Mbps
Encoded date                             : UTC 2008-12-19 12:00:02
Writing application                      : mkvmerge v2.4.1 ('Use Me') built on Dec  5 2008 18:30:05
Writing library                          : libebml v0.7.7 + libmatroska v0.8.1
Video
ID                                       : 1
Format                                   : AVC
Format/Info                              : Advanced Video Codec
Format profile                           : [email protected]
Format settings, CABAC                   : Yes
Format settings, ReFrames                : 4 frames
Codec ID                                 : V_MPEG4/ISO/AVC
Duration                                 : 1h 37mn
Bit rate                                 : 11.0 Mbps
Width                                    : 1 920 pixels
Height                                   : 876 pixels
Display aspect ratio                     : 2.2:1
Frame rate                               : 23.976 fps
Color space                              : YUV
Chroma subsampling                       : 4:2:0
Bit depth                                : 8 bits
Scan type                                : Progressive
Bits/(Pixel*Frame)                       : 0.272
Stream size                              : 7.49 GiB (86%)
Writing library                          : x264 core 65 r1051M 549cc55
Encoding settings                        : cabac=1 / ref=4 / deblock=1:-3:-3 / analyse=0x3:0x133 / me=umh / subme=9 / psy_rd=1.0:0.0 / mixed_ref=1 / me_range=16 / chroma_me=1 / trellis=2 / 8x8dct=1 / cqm=0 / deadzone=21,11 / chroma_qp_offset=-2 / threads=6 / nr=0 / decimate=1 / mbaff=0 / bframes=5 / b_pyramid=1 / b_adapt=2 / b_bias=0 / direct=1 / wpredb=1 / keyint=250 / keyint_min=25 / scenecut=40(pre) / rc=crf / crf=18.0 / qcomp=0.60 / qpmin=10 / qpmax=51 / qpstep=4 / ip_ratio=1.40 / pb_ratio=1.30 / aq=1:0.70
Language                                 : English
Default                                  : Yes
Forced                                   : No
Audio
ID                                       : 2
Format                                   : DTS
Format/Info                              : Digital Theater Systems
Codec ID                                 : A_DTS
Duration                                 : 1h 37mn
Bit rate mode                            : Constant
Bit rate                                 : 1 510 Kbps
Channel(s)                               : 6 channels
Channel positions                        : Front: L C R, Side: L R, LFE
Sampling rate                            : 48.0 KHz
Bit depth                                : 24 bits
Compression mode                         : Lossy
Stream size                              : 1.03 GiB (12%)
Default                                  : Yes
Forced                                   : No
--P.S: ЗАЛИТО НА ЗАКАЗ ... на раздаче до первых скачавших ...-
[Профиль]  [ЛС] 

RARitet

Стаж: 6 лет 5 месяцев

Сообщений: 57

Откуда: остров Севастополь

Создавать темы 20-Янв-2012 17:54 (спустя 17 часов)

[Цитировать] 

Сетяне, это надо видеть ay Image193
Не пожалеете, тем более, что золотая "шара"
Image080
[Профиль]  [ЛС] 

Martin

Стаж: 8 лет 7 месяцев

Сообщений: 134

Создавать темы 27-Янв-2012 15:29 (спустя 6 дней)

[Цитировать] 

Сила!
[Профиль]  [ЛС] 
Показать сообщения:    
Ответить на тему

Текущее время: 10-Дек 05:57

Часовой пояс: UTC + 3



Вы не можете начинать темы
Вы не можете отвечать на сообщения
Вы не можете редактировать свои сообщения
Вы не можете удалять свои сообщения
Вы не можете голосовать в опросах
Вы не можете прикреплять файлы к сообщениям
Вы не можете скачивать файлы