Секретные территории. / НЛО. Рептилии среди нас [23.03.2012 г., Документальный, SATRip]

Ответить на тему
Статистика раздачи [Обновить пиров]
Нет
 
   
 
 
Автор
Сообщение

Magush ®

Стаж: 7 лет

Сообщений: 130

Откуда: Севастополь

Создавать темы 24-Мар-2012 09:11

[Цитировать] 

<center><img src=http://images.sevstar.net/images/74714213109979699294.jpg></center>

Секретные территории. / НЛО. Рептилии среди нас
Дата выпуска: 23.03.2012
Страна: Россия
Жанр: Документальный
Продолжительность: 00:47:42
Перевод: Не требуется
Описание: Секретные территории это цикл документальных расследований (из проекта РЕАЛЬНОСТЬ) о наиболее драматических событиях современности и её знаковых фигурах: деятельность спецслужб, тайные страницы истории, уникальные архивы, новые разработки, фантастические явления, которым нельзя найти объяснение (аномальные зоны, вещие сны, сверхъестественные способности человека и НЛО)… Сюжеты большинства программ — это сенсация или переворот. Своими секретами с авторами фильмов делятся политики, сотрудники спецслужб, бизнесмены и прочие участники событий. Объект программ — парадоксальные события, оставившие след в нашей истории, а также тайные пружины, которые подчас приводят в действие механизм нашей жизни.
В выпуске:
Существует гипотеза, что рептилии - потомки внеземных цивилизаций. Их разумные предки когда-то правили миром, а сегодня часть разумных рептилий, якобы, проживает под Землёй...
Доп. информация:

MediaInfo

Формат : AVI
Формат/Информация : Audio Video Interleave
Размер файла : 524 Мбайт
Продолжительность : 47 м.
Общий поток : 1536 Кбит/сек
Библиотека кодирования : VirtualDub build 32507/release
Видео
Идентификатор : 0
Формат : MPEG-4 Visual
Профиль формата : Advanced [email protected]
Параметр BVOP формата : 2
Параметр QPel формата : Нет
Параметр GMC формата : Без точки перехода
Параметр матрицы формата : Default (H.263)
Режим смешивания : Сжатый битовый поток
Идентификатор кодека : XVID
Идентификатор кодека/Подсказка : XviD
Продолжительность : 47 м.
Битрейт : 1398 Кбит/сек
Ширина : 704 пикселя
Высота : 400 пикселей
Соотношение сторон : 16:9
Частота кадров : 25,000 кадров/сек
Цветовое пространство : YUV
Субдискретизация насыщенности : 4:2:0
Битовая глубина : 8 бит
Тип развёртки : Прогрессивная
Метод сжатия : С потерями
Бит/(Пиксели*Кадры) : 0.199
Размер потока : 477 Мбайт (91%)
Библиотека кодирования : XviD 64
Аудио
Идентификатор : 1
Формат : MPEG Audio
Версия формата : Version 1
Профиль формата : Layer 3
Режим : Joint stereo
Расширение режима : MS Stereo
Идентификатор кодека : 55
Идентификатор кодека/Подсказка : MP3
Продолжительность : 47 м.
Вид битрейта : Постоянный
Битрейт : 128 Кбит/сек
Каналы : 2 канала
Частота : 48,0 КГц
Метод сжатия : С потерями
Размер потока : 43,7 Мбайт (8%)
Выравнивание : Разделение по промежуткам
Продолжительность промежутка : 40 мс. (1,00 видеокадр)
Время предзагрузки промежутка : 1000 мс.
Качество: SATRip
Формат: AVI
Видео кодек: XviD
Аудио кодек: MP3
Видео: 704 x 400, 25,000 кадров/сек, ~1398 Кбит/сек
Аудио: 48,0 КГц, 2 канала стерео, ~128 Кбит/сек
[Профиль]  [ЛС] 
Похожие темы
Форум Тема Автор Размер
Зарубежное кино Kingsman: Секретная служба / Kingsman: The Secret Service HDTV [H.264/1080p-LQ] Тоха™ 4,63 GB
Аудиокниги Верещагин Олег - "Прямо до самого утра или Секрет Неприметного Тупичка" [Вячеслав Есиков, 2009] Oldket 891 MB
Аудиокниги Роберт Энтони-"Главные секреты абсолютной уверенности в себе" Oldket 533 MB
Наше кино Секрет Зоар (2015) WEBRip [H.264/720p-LQ] Тоха™ 1,89 GB
Зарубежные сериалы Секретные материалы / The X-Files (Сезон: 1-9, Серии: 1-202 из 202) (Крис Картер ) [1993-2002, Мистика, фантастика, детектив, триллер, DVDRip] MVO (Рен-ТВ) + MVO (ОРТ) + AVO (Юрий Живов) mihis 146,33 GB
Документальные Секретные материалы / Освобождение (Алла Дерюгина) [25.01.2012 г., Документальный, SATRip] Magush 316 MB
Документальные Секретные самолеты супердержав [Серии:1-4 из 4] / Secret Superpower Aircrafts [2004 г., Документальный, авиация, история, IPTVRip] anatolyi100 2,45 GB
Графика Секреты пошива сумок Hermes ( Сумки из кожи ) [от 270x202 до 2832x4256, 4477] Обновлено 25.07.2015 bot 3,02 GB
Показать сообщения:    
Ответить на тему

Текущее время: 04-Дек 04:56

Часовой пояс: UTC + 3



Вы не можете начинать темы
Вы не можете отвечать на сообщения
Вы не можете редактировать свои сообщения
Вы не можете удалять свои сообщения
Вы не можете голосовать в опросах
Вы не можете прикреплять файлы к сообщениям
Вы не можете скачивать файлы