Стыд / Shame (Стив МакКуин) [2011 г., драма, BDRip 1080p]

Ответить на тему
Статистика раздачи [Обновить пиров]
Нет
 
   
 
 
Автор
Сообщение

Magush ®

Стаж: 7 лет

Сообщений: 130

Откуда: Севастополь

Создавать темы 08-Апр-2012 13:24

[Цитировать] 

<center><img src=http://images.sevstar.net/images/64897579206001965361.png></center>

Стыд / Shame
Год выпуска: 2011
Страна: Великобритания
Жанр: драма
Продолжительность: 01:41:08
Перевод: Дублированный + Оригинальная дорожка
Субтитры: Английские
Выпущено: Великобритания, Film4, HanWay Films, Lip Sync Productions, Momentum Pictures, See-Saw Films, UK Film Council
Режиссер: Стив МакКуин
Продюсер: Эйн Каннинг, Эмиль Шерман, Питер Хэмпден
Сценарий: Стив МакКуин, Эби Морган
В ролях: Майкл Фассбендер, Люсиль Уолтерс, Мари-Анхе Рамирес, Джеймс Бэдж Дэйл, Николь Бихэй, р Алекс Манетт, Ханна Уэр, Элизабет Масуччи, Рэйчел Фаррар, Лорен ОмерБюджет: $6 500 000
Премьера в мире: 4 сентября 2011
NC-17 - Лицам до 17 лет просмотр запрещен
7.90 (14 340)
Описание: Главный герой — житель Нью-Йорка, страдающий от эротомании и неспособный контролировать свою сексуальную жизнь. Он пытается обрести поддержку своих родных, а также ищет помощи у сотрудников.
Рейтинг NC-17: Детям до 17 лет просмотр запрещен. Этот рейтинг подразумевает, что все родители прекрасно отдают себе отчет, что продукт, получивший такое ограничение, не предназначен для просмотра лицами, не достигшими 17-летнего возраста. Фильм может содержать довольно откровенные сексуальные моменты, соответствующий слэнг и эпизоды с чрезвычайным насилием. Однако рейтинг не подразумевает, что фильм является непристойным или порнографическим.Многие кинотеатры предпочитает не связываться с фильмами, получившими рейтинг NC-17. Кроме того, такие фильмы запрещено рекламировать в средствах массовой информации (телевидение, радио, печать и т.д.)

MediaInfo

General
Unique ID : 237970217308077678935401974955845042473 (0xB3076590A920CD8F90426C507ABB4129)
Format : Matroska
Format version : Version 2
File size : 7.79 GiB
Duration : 1h 41mn
Overall bit rate : 11.0 Mbps
Encoded date : UTC 2012-04-08 05:44:03
Writing application : mkvmerge v5.5.0 ('Healer') built on Apr 6 2012 21:43:24
Writing library : libebml v1.2.3 + libmatroska v1.3.0
Video
ID : 1
Format : AVC
Format/Info : Advanced Video Codec
Format profile : [email protected]
Format settings, CABAC : Yes
Format settings, ReFrames : 5 frames
Codec ID : V_MPEG4/ISO/AVC
Duration : 1h 41mn
Bit rate : 9 322 Kbps
Width : 1 920 pixels
Height : 816 pixels
Display aspect ratio : 2.35:1
Frame rate : 23.976 fps
Color space : YUV
Chroma subsampling : 4:2:0
Bit depth : 8 bits
Scan type : Progressive
Bits/(Pixel*Frame) : 0.248
Stream size : 6.43 GiB (83%)
Writing library : x264 core 122 r2184 5c85e0a
Encoding settings : cabac=1 / ref=5 / deblock=1:0:0 / analyse=0x3:0x113 / me=umh / subme=8 / psy=1 / psy_rd=1.00:0.00 / mixed_ref=1 / me_range=16 / chroma_me=1 / trellis=1 / 8x8dct=1 / cqm=0 / deadzone=21,11 / fast_pskip=1 / chroma_qp_offset=-2 / threads=12 / sliced_threads=0 / nr=0 / decimate=1 / interlaced=0 / bluray_compat=0 / constrained_intra=0 / bframes=3 / b_pyramid=2 / b_adapt=2 / b_bias=0 / direct=3 / weightb=1 / open_gop=0 / weightp=2 / keyint=240 / keyint_min=24 / scenecut=40 / intra_refresh=0 / rc_lookahead=50 / rc=2pass / mbtree=1 / bitrate=9322 / ratetol=1.0 / qcomp=0.60 / qpmin=0 / qpmax=69 / qpstep=4 / cplxblur=20.0 / qblur=0.5 / ip_ratio=1.40 / aq=1:1.00
Language : English
Audio #1
ID : 2
Format : AC-3
Format/Info : Audio Coding 3
Mode extension : CM (complete main)
Codec ID : A_AC3
Duration : 1h 41mn
Bit rate mode : Constant
Bit rate : 192 Kbps
Channel(s) : 2 channels
Channel positions : Front: L R
Sampling rate : 48.0 KHz
Bit depth : 16 bits
Compression mode : Lossy
Stream size : 139 MiB (2%)
Language : Russian
Audio #2
ID : 3
Format : DTS
Format/Info : Digital Theater Systems
Codec ID : A_DTS
Duration : 1h 41mn
Bit rate mode : Constant
Bit rate : 1 510 Kbps
Channel(s) : 6 channels
Channel positions : Front: L C R, Side: L R, LFE
Sampling rate : 48.0 KHz
Bit depth : 24 bits
Compression mode : Lossy
Stream size : 1.07 GiB (14%)
Language : English
Text
ID : 4
Format : UTF-8
Codec ID : S_TEXT/UTF8
Codec ID/Info : UTF-8 Plain Text
Language : English
Качество: BDRip
Формат: MKV
Видео кодек: H264
Аудио кодек: AC3, DTS
Видео: 1920x816, 23.98fps, ~9322 Кбит/с,
Аудио: Русский (48.0 KHz, 2 ch, ~192 Кбит/с), английский (48.0 KHz, 6 ch, ~1510 Кбит/с)
Релиз группы:
[Профиль]  [ЛС] 
Показать сообщения:    
Ответить на тему

Текущее время: 11-Дек 07:04

Часовой пояс: UTC + 3



Вы не можете начинать темы
Вы не можете отвечать на сообщения
Вы не можете редактировать свои сообщения
Вы не можете удалять свои сообщения
Вы не можете голосовать в опросах
Вы не можете прикреплять файлы к сообщениям
Вы не можете скачивать файлы