Манхэттенский фестиваль короткометражного кино 2007 / The Manhattan Short Film Festival 2007 (Множество режиссеров) [2007 г., короткий метр, DVDRip]

Ответить на тему
Статистика раздачи [Обновить пиров]
Нет
 
   
 
 
Автор
Сообщение

Magush ®

Стаж: 7 лет

Сообщений: 130

Откуда: Севастополь

Создавать темы 20-Апр-2012 07:40

[Цитировать] 

<center><img src=http://images.sevstar.net/images_tracker/666fbfc1b7c0361e428e9aa7cfa47deb.jpg></center>

Манхэттенский фестиваль короткометражного кино 2007 / The Manhattan Short Film Festival 2007
Год выпуска: 2007
Жанр: короткий метр
Продолжительность: 02:06:55
Перевод: Профессиональный (многоголосый, закадровый)
Режиссер: Соня Ясански, Сюзан Якобсон и Эрик Боден, Флориан Росс, Том Харпер, Джош Раскин, Шэфи Малек, Хьюго Санц, Саймон Эллис, Крэйг Розенталь, Рэйчел Тарк, Сэм Донован
В ролях: Неизвестные актеры
Описание: Манхэттенский фестиваль короткометражного кино достоин почетного места в книге рекордов Гиннеса — это самый большой зрительский фестиваль в мире. В 2006 он проходил на 190-и площадках — во всех штатах Америки и по всей Европе. Программу увидели и проголосовали 50 000 зрителей. Секрет невероятного зрительского успеха, который сопутствует фестивалю на протяжении многих лет, в доступности понимания всего, что происходит на экране, в откровенности, в драматизме каждой отдельно взятой короткой истории, которая может произойти в любой стране и с любым человеком. Ведь именно из таких коротких историй и состоит человеческая жизнь. Крепкий сценарий и режиссерское мастерство — вот, что объединяет все 12 фильмов-финалистов.
КОНКУРСНАЯ ПРОГРАММА 2007
В этом году оргкомитет фестиваля получил 465 фильмов из 32 стран. Из них отобраны только 12, которые и будут показаны по всему миру.

Фильмы победители и рецензии

1. Строки / Lines, США, Режиссер — Соня Ясански Непослушная девочка-подросток задержана после уроков и вынуждена писать строки в качестве наказания. Когда ее дурная учительница пытается найти с ней контакт и читает ей лекцию на тему, как быть такой как все, то девочка решает, что с нее довольно…
2. Сотая доля секунды / The Hundredth of a Second, Великобритания, Режиссер — Сюзан Якобсон и Эрик Боден
3. Клуни / Clooney, Германия, Режиссер — Флориан Росс Маркус должен решить: будет ли он участвовать в концерте с друзьями или пойдет на вечеринку к другим друзьям? Он кидает монетку… Фильм о судьбе и случае, упущенных возможностях и о том, как они могут повлиять на нашу жизнь.
4. Черешни / Cherries, Великобритания, Режиссер — Том Харпер Мальчишки тинэйджеры не обращают внимания на попытки учителя задать им вопрос о разнообразии мира. Но они сейчас выучат тот урок, который они никогда не забудут и который изменит их жизнь надолго.
5. Я встретил моржа / I Met the Walrus, Канада, Режиссер — Джош Раскин В 1969 году 14-летний Джэрри Левитан проник в комнату в отеле Джона Леннона, чтобы просто поболтать. 38 лет спустя Джош Раскин создал фильм об этом. Используя оригинальное интервью, записанное как саундтрек, Раскин создает каждое слова Леннона в каскаде анимации.
6. Полная книга правил Бориса / Boriss Complete Book of Rules, Израиль, Режиссер — Шэфи Малек Когда уборщик Борис заходит в мужскую раздевалку, он видит как Офер и Авишаг ругаются. Офер закрылся в туалете, а его подружка Авишаг заставляет его выйти. Будучи посредником между ними, Борис диктует Авишаг свою книгу правил.
7. Фокусник / The Prestidigitator, Испания, Режиссер — Хьюго Санц
8. Мягкий / Soft, Великобритания, Режиссер — Саймон Эллис Когда отца и сына независимо друг от друга терроризирует одна и та же банда подростков, отцу приходится столкнуться со своими школьными страхами, о которых он совсем забыл после окончания школы.
9. Стажер / The Trainee, Сингапур, Режиссер — Крэйг Розенталь
10. Я хочу быть пилотом / I Want to be a Pilot, Кения, Режиссер — Диего Кьюмада-Диэз Далеко в трущобах в Восточной Африке 12-летний мальчик мечтает только об одном...
11. Одиночество / Feeling Lonely, Австралия, Режиссер — Рэйчел Тарк Windows открывает эру записи вашего прошлого на носители, онлайн знакомств, You Tube и ритуальных наблюдений, в которых близкие отношения часто путают с интимными. Но когда 45-летний некто под именем «Mother Manchester» попадает в Интернет, то он получает намного больше, чем он рассчитывал.
12. Король жиголо / King Ponce, Великобритания, Режиссер — Сэм Донован Этот фильм о подростковой мужественности и групповом признании. Роббо застрял между двумя мирами, которые не могут не пересекаться — его любовь к бальным танцам и его новые друзья.

MediaInfo

msff-2007_00-intro

General
Complete name : D:\Фильмы\Посмотрел\The Manhattan Short Film Festival [2007]\msff-2007_00-intro.avi
Format : AVI
Format/Info : Audio Video Interleave
File size : 14.4 MiB
Duration : 1mn 11s
Overall bit rate : 1 696 Kbps
Writing application : VirtualDubMod 1.5.10.2 (build 2540/release)
Writing library : VirtualDubMod build 2540/release
Video
ID : 0
Format : MPEG-4 Visual
Format settings, BVOP : Yes
Format settings, QPel : No
Format settings, GMC : No warppoints
Format settings, Matrix : Default (H.263)
Codec ID : DX50
Codec ID/Hint : DivX 5
Duration : 1mn 11s
Bit rate : 1 493 Kbps
Width : 720 pixels
Height : 472 pixels
Display aspect ratio : 3:2
Frame rate : 25.000 fps
Color space : YUV
Chroma subsampling : 4:2:0
Bit depth : 8 bits
Scan type : Progressive
Compression mode : Lossy
Bits/(Pixel*Frame) : 0.176
Stream size : 12.6 MiB (88%)
Writing library : DivX 6.8.0 (UTC 2007-12-04)
Audio
ID : 1
Format : AC-3
Format/Info : Audio Coding 3
Mode extension : CM (complete main)
Codec ID : 2000
Duration : 1mn 11s
Bit rate mode : Constant
Bit rate : 192 Kbps
Channel(s) : 2 channels
Channel positions : Front: L R
Sampling rate : 48.0 KHz
Bit depth : 16 bits
Compression mode : Lossy
Stream size : 1.63 MiB (11%)
Alignment : Aligned on interleaves
Interleave, duration : 40 ms (1.01 video frame)
Interleave, preload duration : 512 ms

msff-2007_01-Lines

General
Complete name : D:\Фильмы\Посмотрел\The Manhattan Short Film Festival [2007]\msff-2007_01-Lines.avi
Format : AVI
Format/Info : Audio Video Interleave
File size : 107 MiB
Duration : 9mn 22s
Overall bit rate : 1 597 Kbps
Writing application : VirtualDubMod 1.5.10.2 (build 2540/release)
Writing library : VirtualDubMod build 2540/release
Video
ID : 0
Format : MPEG-4 Visual
Format settings, BVOP : Yes
Format settings, QPel : No
Format settings, GMC : No warppoints
Format settings, Matrix : Default (H.263)
Codec ID : DX50
Codec ID/Hint : DivX 5
Duration : 9mn 22s
Bit rate : 1 395 Kbps
Width : 720 pixels
Height : 472 pixels
Display aspect ratio : 3:2
Frame rate : 25.000 fps
Color space : YUV
Chroma subsampling : 4:2:0
Bit depth : 8 bits
Scan type : Progressive
Compression mode : Lossy
Bits/(Pixel*Frame) : 0.164
Stream size : 93.5 MiB (87%)
Writing library : DivX 6.8.0 (UTC 2007-12-04)
Audio
ID : 1
Format : AC-3
Format/Info : Audio Coding 3
Mode extension : CM (complete main)
Codec ID : 2000
Duration : 9mn 22s
Bit rate mode : Constant
Bit rate : 192 Kbps
Channel(s) : 2 channels
Channel positions : Front: L R
Sampling rate : 48.0 KHz
Bit depth : 16 bits
Compression mode : Lossy
Stream size : 12.9 MiB (12%)
Alignment : Aligned on interleaves
Interleave, duration : 40 ms (1.00 video frame)
Interleave, preload duration : 512 ms

msff-2007_02-The Hundredth of a Second

General
Complete name : D:\Фильмы\Посмотрел\The Manhattan Short Film Festival [2007]\msff-2007_02-The Hundredth of a Second.avi
Format : AVI
Format/Info : Audio Video Interleave
File size : 74.0 MiB
Duration : 5mn 43s
Overall bit rate : 1 805 Kbps
Writing application : VirtualDubMod 1.5.10.2 (build 2540/release)
Writing library : VirtualDubMod build 2540/release
Video
ID : 0
Format : MPEG-4 Visual
Format settings, BVOP : Yes
Format settings, QPel : No
Format settings, GMC : No warppoints
Format settings, Matrix : Default (H.263)
Codec ID : DX50
Codec ID/Hint : DivX 5
Duration : 5mn 43s
Bit rate : 1 603 Kbps
Width : 720 pixels
Height : 472 pixels
Display aspect ratio : 3:2
Frame rate : 25.000 fps
Color space : YUV
Chroma subsampling : 4:2:0
Bit depth : 8 bits
Scan type : Progressive
Compression mode : Lossy
Bits/(Pixel*Frame) : 0.189
Stream size : 65.7 MiB (89%)
Writing library : DivX 6.8.0 (UTC 2007-12-04)
Audio
ID : 1
Format : AC-3
Format/Info : Audio Coding 3
Mode extension : CM (complete main)
Codec ID : 2000
Duration : 5mn 43s
Bit rate mode : Constant
Bit rate : 192 Kbps
Channel(s) : 2 channels
Channel positions : Front: L R
Sampling rate : 48.0 KHz
Bit depth : 16 bits
Compression mode : Lossy
Stream size : 7.87 MiB (11%)
Alignment : Aligned on interleaves
Interleave, duration : 40 ms (1.00 video frame)
Interleave, preload duration : 512 ms

msff-2007_03-Clooney

General
Complete name : D:\Фильмы\Посмотрел\The Manhattan Short Film Festival [2007]\msff-2007_03-Clooney.avi
Format : AVI
Format/Info : Audio Video Interleave
File size : 141 MiB
Duration : 11mn 44s
Overall bit rate : 1 680 Kbps
Writing application : VirtualDubMod 1.5.10.2 (build 2540/release)
Writing library : VirtualDubMod build 2540/release
Video
ID : 0
Format : MPEG-4 Visual
Format settings, BVOP : Yes
Format settings, QPel : No
Format settings, GMC : No warppoints
Format settings, Matrix : Default (H.263)
Codec ID : DX50
Codec ID/Hint : DivX 5
Duration : 11mn 44s
Bit rate : 1 478 Kbps
Width : 720 pixels
Height : 472 pixels
Display aspect ratio : 3:2
Frame rate : 25.000 fps
Color space : YUV
Chroma subsampling : 4:2:0
Bit depth : 8 bits
Scan type : Progressive
Compression mode : Lossy
Bits/(Pixel*Frame) : 0.174
Stream size : 124 MiB (88%)
Writing library : DivX 6.8.0 (UTC 2007-12-04)
Audio
ID : 1
Format : AC-3
Format/Info : Audio Coding 3
Mode extension : CM (complete main)
Codec ID : 2000
Duration : 11mn 44s
Bit rate mode : Constant
Bit rate : 192 Kbps
Channel(s) : 2 channels
Channel positions : Front: L R
Sampling rate : 48.0 KHz
Bit depth : 16 bits
Compression mode : Lossy
Stream size : 16.1 MiB (11%)
Alignment : Aligned on interleaves
Interleave, duration : 40 ms (1.00 video frame)
Interleave, preload duration : 512 ms

msff-2007_04-Cherries

General
Complete name : D:\Фильмы\Посмотрел\The Manhattan Short Film Festival [2007]\msff-2007_04-Cherries.avi
Format : AVI
Format/Info : Audio Video Interleave
File size : 180 MiB
Duration : 14mn 48s
Overall bit rate : 1 695 Kbps
Writing application : VirtualDubMod 1.5.10.2 (build 2540/release)
Writing library : VirtualDubMod build 2540/release
Video
ID : 0
Format : MPEG-4 Visual
Format settings, BVOP : 1
Format settings, QPel : No
Format settings, GMC : No warppoints
Format settings, Matrix : Default (H.263)
Muxing mode : Packed bitstream
Codec ID : DX50
Codec ID/Hint : DivX 5
Duration : 14mn 48s
Bit rate : 1 493 Kbps
Width : 720 pixels
Height : 472 pixels
Display aspect ratio : 3:2
Frame rate : 25.000 fps
Color space : YUV
Chroma subsampling : 4:2:0
Bit depth : 8 bits
Scan type : Progressive
Compression mode : Lossy
Bits/(Pixel*Frame) : 0.176
Stream size : 158 MiB (88%)
Writing library : DivX 6.8.0 (UTC 2007-12-04)
Audio
ID : 1
Format : AC-3
Format/Info : Audio Coding 3
Mode extension : CM (complete main)
Codec ID : 2000
Duration : 14mn 48s
Bit rate mode : Constant
Bit rate : 192 Kbps
Channel(s) : 2 channels
Channel positions : Front: L R
Sampling rate : 48.0 KHz
Bit depth : 16 bits
Compression mode : Lossy
Stream size : 20.3 MiB (11%)
Alignment : Aligned on interleaves
Interleave, duration : 40 ms (1.00 video frame)
Interleave, preload duration : 512 ms

msff-2007_05-I Met the Walrus

General
Complete name : D:\Фильмы\Посмотрел\The Manhattan Short Film Festival [2007]\msff-2007_05-I Met the Walrus.avi
Format : AVI
Format/Info : Audio Video Interleave
File size : 68.1 MiB
Duration : 5mn 34s
Overall bit rate : 1 706 Kbps
Writing application : VirtualDubMod 1.5.10.2 (build 2540/release)
Writing library : VirtualDubMod build 2540/release
Video
ID : 0
Format : MPEG-4 Visual
Format settings, BVOP : Yes
Format settings, QPel : No
Format settings, GMC : No warppoints
Format settings, Matrix : Default (H.263)
Codec ID : DX50
Codec ID/Hint : DivX 5
Duration : 5mn 34s
Bit rate : 1 504 Kbps
Width : 720 pixels
Height : 472 pixels
Display aspect ratio : 3:2
Frame rate : 25.000 fps
Color space : YUV
Chroma subsampling : 4:2:0
Bit depth : 8 bits
Scan type : Progressive
Compression mode : Lossy
Bits/(Pixel*Frame) : 0.177
Stream size : 60.0 MiB (88%)
Writing library : DivX 6.8.0 (UTC 2007-12-04)
Audio
ID : 1
Format : AC-3
Format/Info : Audio Coding 3
Mode extension : CM (complete main)
Codec ID : 2000
Duration : 5mn 34s
Bit rate mode : Constant
Bit rate : 192 Kbps
Channel(s) : 2 channels
Channel positions : Front: L R
Sampling rate : 48.0 KHz
Bit depth : 16 bits
Compression mode : Lossy
Stream size : 7.66 MiB (11%)
Alignment : Aligned on interleaves
Interleave, duration : 40 ms (1.00 video frame)
Interleave, preload duration : 512 ms

msff-2007_06-Boriss Complete Book of Rules

General
Complete name : D:\Фильмы\Посмотрел\The Manhattan Short Film Festival [2007]\msff-2007_06-Boriss Complete Book of Rules.avi
Format : AVI
Format/Info : Audio Video Interleave
File size : 157 MiB
Duration : 13mn 7s
Overall bit rate : 1 676 Kbps
Writing application : VirtualDubMod 1.5.10.2 (build 2540/release)
Writing library : VirtualDubMod build 2540/release
Video
ID : 0
Format : MPEG-4 Visual
Format settings, BVOP : Yes
Format settings, QPel : No
Format settings, GMC : No warppoints
Format settings, Matrix : Default (H.263)
Codec ID : DX50
Codec ID/Hint : DivX 5
Duration : 13mn 7s
Bit rate : 1 474 Kbps
Width : 720 pixels
Height : 472 pixels
Display aspect ratio : 3:2
Frame rate : 25.000 fps
Color space : YUV
Chroma subsampling : 4:2:0
Bit depth : 8 bits
Scan type : Progressive
Compression mode : Lossy
Bits/(Pixel*Frame) : 0.174
Stream size : 138 MiB (88%)
Writing library : DivX 6.8.0 (UTC 2007-12-04)
Audio
ID : 1
Format : AC-3
Format/Info : Audio Coding 3
Mode extension : CM (complete main)
Codec ID : 2000
Duration : 13mn 6s
Bit rate mode : Constant
Bit rate : 192 Kbps
Channel(s) : 2 channels
Channel positions : Front: L R
Sampling rate : 48.0 KHz
Bit depth : 16 bits
Compression mode : Lossy
Stream size : 18.0 MiB (11%)
Alignment : Aligned on interleaves
Interleave, duration : 40 ms (1.00 video frame)
Interleave, preload duration : 512 ms

msff-2007_07-The Prestidigitator

General
Complete name : D:\Фильмы\Посмотрел\The Manhattan Short Film Festival [2007]\msff-2007_07-The Prestidigitator.avi
Format : AVI
Format/Info : Audio Video Interleave
File size : 114 MiB
Duration : 9mn 29s
Overall bit rate : 1 678 Kbps
Writing application : VirtualDubMod 1.5.10.2 (build 2540/release)
Writing library : VirtualDubMod build 2540/release
Video
ID : 0
Format : MPEG-4 Visual
Format settings, BVOP : Yes
Format settings, QPel : No
Format settings, GMC : No warppoints
Format settings, Matrix : Default (H.263)
Codec ID : DX50
Codec ID/Hint : DivX 5
Duration : 9mn 29s
Bit rate : 1 476 Kbps
Width : 720 pixels
Height : 472 pixels
Display aspect ratio : 3:2
Frame rate : 25.000 fps
Color space : YUV
Chroma subsampling : 4:2:0
Bit depth : 8 bits
Scan type : Progressive
Compression mode : Lossy
Bits/(Pixel*Frame) : 0.174
Stream size : 100 MiB (88%)
Writing library : DivX 6.8.0 (UTC 2007-12-04)
Audio
ID : 1
Format : AC-3
Format/Info : Audio Coding 3
Mode extension : CM (complete main)
Codec ID : 2000
Duration : 9mn 29s
Bit rate mode : Constant
Bit rate : 192 Kbps
Channel(s) : 2 channels
Channel positions : Front: L R
Sampling rate : 48.0 KHz
Bit depth : 16 bits
Compression mode : Lossy
Stream size : 13.0 MiB (11%)
Alignment : Aligned on interleaves
Interleave, duration : 40 ms (1.00 video frame)
Interleave, preload duration : 512 ms

msff-2007_08-Soft

General
Complete name : D:\Фильмы\Посмотрел\The Manhattan Short Film Festival [2007]\msff-2007_08-Soft.avi
Format : AVI
Format/Info : Audio Video Interleave
File size : 173 MiB
Duration : 14mn 23s
Overall bit rate : 1 684 Kbps
Writing application : VirtualDubMod 1.5.10.2 (build 2540/release)
Writing library : VirtualDubMod build 2540/release
Video
ID : 0
Format : MPEG-4 Visual
Format settings, BVOP : 1
Format settings, QPel : No
Format settings, GMC : No warppoints
Format settings, Matrix : Default (H.263)
Muxing mode : Packed bitstream
Codec ID : DX50
Codec ID/Hint : DivX 5
Duration : 14mn 23s
Bit rate : 1 482 Kbps
Width : 720 pixels
Height : 472 pixels
Display aspect ratio : 3:2
Frame rate : 25.000 fps
Color space : YUV
Chroma subsampling : 4:2:0
Bit depth : 8 bits
Scan type : Progressive
Compression mode : Lossy
Bits/(Pixel*Frame) : 0.174
Stream size : 153 MiB (88%)
Writing library : DivX 6.8.0 (UTC 2007-12-04)
Audio
ID : 1
Format : AC-3
Format/Info : Audio Coding 3
Mode extension : CM (complete main)
Codec ID : 2000
Duration : 14mn 23s
Bit rate mode : Constant
Bit rate : 192 Kbps
Channel(s) : 2 channels
Channel positions : Front: L R
Sampling rate : 48.0 KHz
Bit depth : 16 bits
Compression mode : Lossy
Stream size : 19.8 MiB (11%)
Alignment : Aligned on interleaves
Interleave, duration : 40 ms (1.00 video frame)
Interleave, preload duration : 512 ms

msff-2007_09-The Trainee

General
Complete name : D:\Фильмы\Посмотрел\The Manhattan Short Film Festival [2007]\msff-2007_09-The Trainee.avi
Format : AVI
Format/Info : Audio Video Interleave
File size : 109 MiB
Duration : 9mn 1s
Overall bit rate : 1 685 Kbps
Writing application : VirtualDubMod 1.5.10.2 (build 2540/release)
Writing library : VirtualDubMod build 2540/release
Video
ID : 0
Format : MPEG-4 Visual
Format settings, BVOP : Yes
Format settings, QPel : No
Format settings, GMC : No warppoints
Format settings, Matrix : Default (H.263)
Codec ID : DX50
Codec ID/Hint : DivX 5
Duration : 9mn 1s
Bit rate : 1 483 Kbps
Width : 720 pixels
Height : 472 pixels
Display aspect ratio : 3:2
Frame rate : 25.000 fps
Color space : YUV
Chroma subsampling : 4:2:0
Bit depth : 8 bits
Scan type : Progressive
Compression mode : Lossy
Bits/(Pixel*Frame) : 0.175
Stream size : 95.6 MiB (88%)
Writing library : DivX 6.8.0 (UTC 2007-12-04)
Audio
ID : 1
Format : AC-3
Format/Info : Audio Coding 3
Mode extension : CM (complete main)
Codec ID : 2000
Duration : 9mn 0s
Bit rate mode : Constant
Bit rate : 192 Kbps
Channel(s) : 2 channels
Channel positions : Front: L R
Sampling rate : 48.0 KHz
Bit depth : 16 bits
Compression mode : Lossy
Stream size : 12.4 MiB (11%)
Alignment : Aligned on interleaves
Interleave, duration : 40 ms (1.00 video frame)
Interleave, preload duration : 512 ms

msff-2007_10-I Want to be a Pilot

General
Complete name : D:\Фильмы\Посмотрел\The Manhattan Short Film Festival [2007]\msff-2007_10-I Want to be a Pilot.avi
Format : AVI
Format/Info : Audio Video Interleave
File size : 140 MiB
Duration : 11mn 41s
Overall bit rate : 1 681 Kbps
Writing application : VirtualDubMod 1.5.10.2 (build 2540/release)
Writing library : VirtualDubMod build 2540/release
Video
ID : 0
Format : MPEG-4 Visual
Format settings, BVOP : 1
Format settings, QPel : No
Format settings, GMC : No warppoints
Format settings, Matrix : Default (H.263)
Muxing mode : Packed bitstream
Codec ID : DX50
Codec ID/Hint : DivX 5
Duration : 11mn 41s
Bit rate : 1 479 Kbps
Width : 720 pixels
Height : 472 pixels
Display aspect ratio : 3:2
Frame rate : 25.000 fps
Color space : YUV
Chroma subsampling : 4:2:0
Bit depth : 8 bits
Scan type : Progressive
Compression mode : Lossy
Bits/(Pixel*Frame) : 0.174
Stream size : 124 MiB (88%)
Writing library : DivX 6.8.0 (UTC 2007-12-04)
Audio
ID : 1
Format : AC-3
Format/Info : Audio Coding 3
Mode extension : CM (complete main)
Codec ID : 2000
Duration : 11mn 41s
Bit rate mode : Constant
Bit rate : 192 Kbps
Channel(s) : 2 channels
Channel positions : Front: L R
Sampling rate : 48.0 KHz
Bit depth : 16 bits
Compression mode : Lossy
Stream size : 16.0 MiB (11%)
Alignment : Aligned on interleaves
Interleave, duration : 40 ms (1.00 video frame)
Interleave, preload duration : 512 ms

msff-2007_11-Feeling Lonely

General
Complete name : D:\Фильмы\Посмотрел\The Manhattan Short Film Festival [2007]\msff-2007_11-Feeling Lonely.avi
Format : AVI
Format/Info : Audio Video Interleave
File size : 131 MiB
Duration : 10mn 45s
Overall bit rate : 1 696 Kbps
Writing application : VirtualDubMod 1.5.10.2 (build 2540/release)
Writing library : VirtualDubMod build 2540/release
Video
ID : 0
Format : MPEG-4 Visual
Format settings, BVOP : Yes
Format settings, QPel : No
Format settings, GMC : No warppoints
Format settings, Matrix : Default (H.263)
Codec ID : DX50
Codec ID/Hint : DivX 5
Duration : 10mn 45s
Bit rate : 1 494 Kbps
Width : 720 pixels
Height : 472 pixels
Display aspect ratio : 3:2
Frame rate : 25.000 fps
Color space : YUV
Chroma subsampling : 4:2:0
Bit depth : 8 bits
Scan type : Progressive
Compression mode : Lossy
Bits/(Pixel*Frame) : 0.176
Stream size : 115 MiB (88%)
Writing library : DivX 6.8.0 (UTC 2007-12-04)
Audio
ID : 1
Format : AC-3
Format/Info : Audio Coding 3
Mode extension : CM (complete main)
Codec ID : 2000
Duration : 10mn 45s
Bit rate mode : Constant
Bit rate : 192 Kbps
Channel(s) : 2 channels
Channel positions : Front: L R
Sampling rate : 48.0 KHz
Bit depth : 16 bits
Compression mode : Lossy
Stream size : 14.8 MiB (11%)
Alignment : Aligned on interleaves
Interleave, duration : 40 ms (1.00 video frame)
Interleave, preload duration : 512 ms

msff-2007_12-King Ponce

General
Complete name : D:\Фильмы\Посмотрел\The Manhattan Short Film Festival [2007]\msff-2007_12-King Ponce.avi
Format : AVI
Format/Info : Audio Video Interleave
File size : 121 MiB
Duration : 10mn 2s
Overall bit rate : 1 680 Kbps
Writing application : VirtualDubMod 1.5.10.2 (build 2540/release)
Writing library : VirtualDubMod build 2540/release
Video
ID : 0
Format : MPEG-4 Visual
Format settings, BVOP : 1
Format settings, QPel : No
Format settings, GMC : No warppoints
Format settings, Matrix : Default (H.263)
Muxing mode : Packed bitstream
Codec ID : DX50
Codec ID/Hint : DivX 5
Duration : 10mn 2s
Bit rate : 1 478 Kbps
Width : 720 pixels
Height : 472 pixels
Display aspect ratio : 3:2
Frame rate : 25.000 fps
Color space : YUV
Chroma subsampling : 4:2:0
Bit depth : 8 bits
Scan type : Progressive
Compression mode : Lossy
Bits/(Pixel*Frame) : 0.174
Stream size : 106 MiB (88%)
Writing library : DivX 6.8.0 (UTC 2007-12-04)
Audio
ID : 1
Format : AC-3
Format/Info : Audio Coding 3
Mode extension : CM (complete main)
Codec ID : 2000
Duration : 10mn 2s
Bit rate mode : Constant
Bit rate : 192 Kbps
Channel(s) : 2 channels
Channel positions : Front: L R
Sampling rate : 48.0 KHz
Bit depth : 16 bits
Compression mode : Lossy
Stream size : 13.8 MiB (11%)
Alignment : Aligned on interleaves
Interleave, duration : 40 ms (1.00 video frame)
Interleave, preload duration : 512 ms
Качество: DVDRip
Формат: AVI
Видео кодек: DivX
Аудио кодек: AC3
Видео: 720x472, 25 fps, ~1477 kbps , 0.16 bit/pixel
Аудио: 48 kHz, 2/0 (L,R) ch, ~192.00 kbps
[Профиль]  [ЛС] 
Показать сообщения:    
Ответить на тему

Текущее время: 11-Дек 12:55

Часовой пояс: UTC + 3



Вы не можете начинать темы
Вы не можете отвечать на сообщения
Вы не можете редактировать свои сообщения
Вы не можете удалять свои сообщения
Вы не можете голосовать в опросах
Вы не можете прикреплять файлы к сообщениям
Вы не можете скачивать файлы