Апокалипсис. На руинах (Сергей Куракин) [2012 г., Документальный, IPTVRip]

Ответить на тему
Статистика раздачи [Обновить пиров]
Нет
 
   
 
 
Автор
Сообщение

Magush ®

Стаж: 7 лет

Сообщений: 130

Откуда: Севастополь

Создавать темы 27-Апр-2012 14:16

[Цитировать] 

<center><img src=http://images.sevstar.net/images_tracker/1a5b65cff338b20a28779c9c775ef009.png></center>

Апокалипсис. На руинах
Год выпуска: 2012
Страна: Россия
Жанр: Документальный
Продолжительность: 00:46:46
Перевод: Не требуется
Режиссер: Сергей Куракин
Описание: Вся правда о самом страшном... В начале третьего тысячелетия человечество намного острее ощущает опасность, которая может прийти в виде огромного метеорита или инопланетного десанта из космоса или из микромира, в виде смертельных вирусов. И тогда Земля может стать непригодной для жизни... Но какой из вариантов наиболее вероятный? И есть ли способы избежать планетарной катастрофы?
Что ждет нас в 2012 - конец света или начало новой эпохи в истории цивилизации? Цивилизация "майя" величайший народ с феноминальными знаниями или просто рабы высшей расы? Люди Индиго - это будущее человеческой рассы или причина упадка сегоднешнего человечества? Что будет после 21 декабря 2012 года. неизвестно никому….

MediaInfo

Формат : AVI
Формат/Информация : Audio Video Interleave
Размер файла : 568 Мбайт
Продолжительность : 46 м.
Общий поток : 1697 Кбит/сек
Программа кодирования : VirtualDubMod 1.5.10.3 | www.virtualdub-fr.org || (build 2550/release)
Библиотека кодирования : VirtualDubMod build 2550/release
Видео
Идентификатор : 0
Формат : MPEG-4 Visual
Профиль формата : Advanced [email protected]
Параметр BVOP формата : 1
Параметр QPel формата : Нет
Параметр GMC формата : Без точки перехода
Параметр матрицы формата : Default (H.263)
Идентификатор кодека : XVID
Идентификатор кодека/Подсказка : XviD
Продолжительность : 46 м.
Битрейт : 1495 Кбит/сек
Ширина : 720 пикселей
Высота : 400 пикселей
Соотношение сторон : 16:9
Частота кадров : 25,000 кадров/сек
Цветовое пространство : YUV
Субдискретизация насыщенности : 4:2:0
Битовая глубина : 8 бит
Тип развёртки : Прогрессивная
Метод сжатия : С потерями
Бит/(Пиксели*Кадры) : 0.208
Размер потока : 500 Мбайт (88%)
Библиотека кодирования : XviD 1.2.1 (UTC 2008-12-04)
Аудио
Идентификатор : 1
Формат : MPEG Audio
Версия формата : Version 1
Профиль формата : Layer 3
Идентификатор кодека : 55
Идентификатор кодека/Подсказка : MP3
Продолжительность : 46 м.
Вид битрейта : Постоянный
Битрейт : 192 Кбит/сек
Каналы : 2 канала
Частота : 48,0 КГц
Метод сжатия : С потерями
Размер потока : 64,2 Мбайт (11%)
Выравнивание : Соединение по промежуткам
Продолжительность промежутка : 40 мс. (1,00 видеокадр)
Время предзагрузки промежутка : 504 мс.
Библиотека кодирования : LAME3.98r
Настройки программы : -m s -V 4 -q 2 -lowpass 18.6 -b 192
Качество: IPTVRip
Формат: AVI
Видео кодек: XviD
Аудио кодек: MP3
Видео: 720 x 400 (16:9), 25,000 кадров/сек, ~1495 Кбит/сек
Аудио: 48,0 КГц, 2 канала, ~192 Кбит/сек
[Профиль]  [ЛС] 

Magush ®

Стаж: 7 лет

Сообщений: 130

Откуда: Севастополь

Создавать темы 27-Апр-2012 14:22 (спустя 6 минут)

[Цитировать] 

Док. фильм, о том как городские ребята решили испытать себя в полевых условиях. Пожить пару дней на заброшенном военном городке и его окрестностях, построить убежище и всё такое...
[Профиль]  [ЛС] 
Похожие темы
Форум Тема Автор Размер
Отечественные сериалы Выжить после / Сезон: 2 / Серии: 1-12 из 12 (Душан Глигоров, Александр Богуславский) [2016, Триллер, постапокалипсис, SATRip] dimdim 7,94 GB
Отечественные сериалы Выжить после / Сезон: 3 / Серии: 1-12 из 12 (Душан Глигоров, Александр Богуславский) [2016, Триллер, постапокалипсис, WEB-DLRip] dimdim 7,09 GB
Зарубежное кино Люди Икс: Апокалипсис / X-Men: Apocalypse (2016) TS | D Тоха™ 2,05 GB
Зарубежные сериалы Нация Z / Z Nation (Cезон 1 , Серия: 1-2 из 13) [2014, Хоррор, экшен, зомби, апокалипсис, WEB-DLRip, Профессиональный (многоголосый, закадровый) - BaibaKo] ЗвЕрЁк 1,16 GB
Зарубежное кино Репортаж: Апокалипсис / [REC] 4: Apocalipsis (2014) HDRip [звук с TS] Тоха™ 1,37 GB
Показать сообщения:    
Ответить на тему

Текущее время: 04-Дек 23:21

Часовой пояс: UTC + 3



Вы не можете начинать темы
Вы не можете отвечать на сообщения
Вы не можете редактировать свои сообщения
Вы не можете удалять свои сообщения
Вы не можете голосовать в опросах
Вы не можете прикреплять файлы к сообщениям
Вы не можете скачивать файлы