Пираты Карибского моря: Квадрология / Pirates of the Caribbean Quadrilogy (2003/2006/2007/2011) BDRip 1080p

Ответить на тему
Статистика раздачи [Обновить пиров]
Качаю: [ 1 ]
 
   
 
 
Автор
Сообщение

-=DoC(ToP)=-™ ®

Стаж: 5 лет 1 месяц

Сообщений: 472

Откуда: СЕВАСТОПОЛЬ

Создавать темы 25-Май-2012 22:30

[Цитировать] 

<center><img src=http://lostpic.net/images/09fcd221fcaf68d2262f3aabe66c83a9.png></center>

Пираты Карибского моря: Проклятие Чёрной Жемчужины / Pirates of the Caribbean: The Curse of the Black Pearl

Пираты Карибского моря: Проклятие Чёрной Жемчужины / Pirates of the Caribbean: The Curse of the Black Pearl
Год выпуска: 2003
Страна: США
Жанр: фэнтези, приключения, боевик
Продолжительность: 143 мин. / 02:23:15
Перевод: Профессиональный (полное дублирование) + Оригинал
Режиссер: Гор Вербински, Роб Маршалл
Продюсер: Джерри Брукхаймер
Сценарий: Терри Россио, Тед Эллиотт
Бюджет: $140 000 000
Премьера в мире: 28 июня 2003
PG-13 - Детям до 13 лет просмотр не желателен
8.00 (366 023)

В ролях: Джонни Депп, Джеффри Раш, Орландо Блум, Кира Найтли, Джек Девенпорт, Джонатан Прайс, Ли Аренберг, Маккензи Крук, Дэмиан О’Хейр, Джиллз Нью
Описание: Жизнь харизматичного авантюриста, капитана Джека Воробья, полная увлекательных приключений, резко меняется, когда его заклятый враг — капитан Барбосса — похищает корабль Джека, Черную Жемчужину, а затем нападает на Порт Ройал и крадет прекрасную дочь губернатора, Элизабет Свонн.Друг детства Элизабет, Уилл Тернер, вместе с Джеком возглавляет спасательную экспедицию на самом быстром корабле Британии, в попытке вызволить девушку из плена и заодно отобрать у злодея Черную Жемчужину. Вслед за этой парочкой отправляется амбициозный коммодор Норрингтон, который к тому же числится женихом Элизабет.Однако Уилл не знает, что над Барбоссой висит вечное проклятие, при лунном свете превращающее его с командой в живых скелетов. Проклятье будет снято лишь тогда, когда украденное золото Ацтеков будет возвращено пиратами на старое место.
Качество: BDRip 1080p
Формат: MKV
Видео кодек: x264
Аудио кодек: AC3
Видео: 1920x800, 6476 Kbps, 23.976 fps
Аудио: AC-3, 6 ch, 640 kbps (Rus)
Аудио #2: AC-3, 6 ch, 640 kbps (Eng)
Cубтитры: русские(полные, форсированные), английские

MI

Общее
Уникальный идентификатор : 194130583029754339095636459084280235376 (0x920C30B75BE497E790C8C25166940570)
Полное имя : 1. Пираты Карибского моря. Проклятие Черной жемчужины.2003.BDRip.1080p.Rus.Eng.mkv
Формат : Matroska
Версия формата : Version 4 / Version 2
Размер файла : 7,76 Гбайт
Продолжительность : 2 ч. 23 м.
Общий поток : 7757 Кбит/сек
Название фильма : Пираты Карибского моря: Проклятие Черной жемчужины.2003
Дата кодирования : UTC 2010-02-22 21:41:31
Программа кодирования : mkvmerge v5.8.0 ('No Sleep / Pillow') built on Sep 30 2012 10:57:14
Библиотека кодирования : libebml v1.3.0 + libmatroska v1.4.0
Видео
Идентификатор : 1
Формат : AVC
Формат/Информация : Advanced Video Codec
Профиль формата : [email protected]
Параметр CABAC формата : Да
Параметр ReFrames формата : 5 кадров
Идентификатор кодека : V_MPEG4/ISO/AVC
Битрейт : 6476 Кбит/сек
Ширина : 1920 пикселей
Высота : 800 пикселей
Соотношение сторон : 2,40:1
Режим частоты кадров : Переменный
Частота кадров в оригинале : 23,976 кадра/сек
Цветовое пространство : YUV
Субдискретизация насыщенности : 4:2:0
Битовая глубина : 8 бит
Тип развёртки : Прогрессивная
Бит/(Пиксели*Кадры) : 0.176
Заголовок : Rip by Boriy
Библиотека кодирования : x264 core 128 r2216 198a7ea
Настройки программы : cabac=1 / ref=5 / deblock=1:0:0 / analyse=0x3:0x113 / me=umh / subme=10 / psy=1 / psy_rd=1.00:0.10 / mixed_ref=1 / me_range=32 / chroma_me=1 / trellis=2 / 8x8dct=1 / cqm=0 / deadzone=21,11 / fast_pskip=0 / chroma_qp_offset=-3 / threads=12 / lookahead_threads=2 / sliced_threads=0 / nr=0 / decimate=0 / interlaced=0 / bluray_compat=0 / constrained_intra=0 / bframes=5 / b_pyramid=2 / b_adapt=2 / b_bias=0 / direct=3 / weightb=1 / open_gop=0 / weightp=2 / keyint=240 / keyint_min=23 / scenecut=40 / intra_refresh=0 / rc=2pass / mbtree=0 / bitrate=6476 / ratetol=1.0 / qcomp=0.60 / qpmin=0 / qpmax=69 / qpstep=4 / cplxblur=20.0 / qblur=0.5 / ip_ratio=1.40 / pb_ratio=1.30 / aq=1:0.80
Язык : English
Default : Да
Forced : Нет
Аудио #1
Идентификатор : 2
Формат : AC-3
Формат/Информация : Audio Coding 3
Расширение режима : CM (complete main)
Параметр Endianness формата : Big
Идентификатор кодека : A_AC3
Продолжительность : 2 ч. 23 м.
Вид битрейта : Постоянный
Битрейт : 640 Кбит/сек
Каналы : 6 каналов
Расположение каналов : Front: L C R, Side: L R, LFE
Частота : 48,0 КГц
Битовая глубина : 16 бит
Метод сжатия : С потерями
Размер потока : 656 Мбайт (8%)
Заголовок : Дубляж
Язык : Russian
Default : Да
Forced : Нет
Аудио #2
Идентификатор : 3
Формат : AC-3
Формат/Информация : Audio Coding 3
Расширение режима : CM (complete main)
Параметр Endianness формата : Big
Идентификатор кодека : A_AC3
Продолжительность : 2 ч. 23 м.
Вид битрейта : Постоянный
Битрейт : 640 Кбит/сек
Каналы : 6 каналов
Расположение каналов : Front: L C R, Side: L R, LFE
Частота : 48,0 КГц
Битовая глубина : 16 бит
Метод сжатия : С потерями
Размер потока : 656 Мбайт (8%)
Заголовок : Оригинал
Язык : English
Default : Нет
Forced : Нет
Текст #1
Идентификатор : 4
Формат : UTF-8
Идентификатор кодека : S_TEXT/UTF8
Идентификатор кодека/Информация : UTF-8 Plain Text
Заголовок : Forced
Язык : Russian
Default : Да
Forced : Да
Текст #2
Идентификатор : 5
Формат : UTF-8
Идентификатор кодека : S_TEXT/UTF8
Идентификатор кодека/Информация : UTF-8 Plain Text
Заголовок : Full
Язык : Russian
Default : Нет
Forced : Нет
Текст #3
Идентификатор : 6
Формат : UTF-8
Идентификатор кодека : S_TEXT/UTF8
Идентификатор кодека/Информация : UTF-8 Plain Text
Заголовок : Full
Язык : English
Default : Нет
Forced : Нет
Меню
00:00:00.000 : :Chapter 1
00:08:51.278 : :Chapter 2
00:16:05.547 : :Chapter 3
00:27:16.342 : :Chapter 4
00:35:59.322 : :Chapter 5
00:41:02.960 : :Chapter 6
00:48:19.938 : :Chapter 7
00:54:01.277 : :Chapter 8
01:04:05.675 : :Chapter 9
01:15:56.801 : :Chapter 10
01:21:21.417 : :Chapter 11
01:35:00.152 : :Chapter 12
01:40:00.743 : :Chapter 13
01:48:15.613 : :Chapter 14
02:02:02.189 : :Chapter 15
02:13:09.647 : :Chapter 16
02:23:14.877 : :Chapter 17

Скриншоты


Пираты Карибского моря: Сундук мертвеца / Pirates of the Caribbean: Dead Man's Chest

Пираты Карибского моря: Сундук мертцвеца / Pirates of the Caribbean: Dead Man's Chest
Год выпуска: 2006
Страна: США
Жанр: фэнтези, детектив, приключения, семейный
Продолжительность: 150 мин. / 02:30:40
Перевод: Профессиональный (полное дублирование)
Режиссер: Гор Вербински, Роб Маршалл
Продюсер: Джерри Брукхаймер
Сценарий: Терри Россио, Тед Эллиотт
Бюджет: $225 000 000
Премьера в мире: 24 июня 2006
PG-13 - Детям до 13 лет просмотр не желателен
7.20 (238 992)

В ролях: Джонни Депп, Джеффри Раш, Орландо Блум, Кира Найтли, Джек Девенпорт, Джонатан Прайс, Ли Аренберг, Маккензи Крук, Дэмиан О’Хейр, Джиллз Нью
Описание: Вновь оказавшись в ирреальном мире, лихой капитан Джек Воробей неожиданно узнает, что является должником легендарного капитана «Летучего Голландца» Дэйви Джонса. Джек должен в кратчайшие сроки решить эту проблему, иначе ему грозит вечное проклятие и рабское существование после смерти. Вдобавок ко всему, срывается свадьба Уилла Тернера и Элизабет Суонн, которые вынуждены составить Джеку компанию в его злоключениях...
Качество: BDRip 1080p
Формат: MKV
Видео кодек: x264
Аудио кодек: AC3
Видео: 1920x800, 6096 Kbps, 23.976 fps
Аудио: AC-3, 6 ch, 640 kbps (Rus)
Аудио #2: AC-3, 6 ch, 640 kbps (Eng)
Cубтитры: русские(полные, форсированные), английские

MI

Общее
Уникальный идентификатор : 226470303021135348124665632091182163136 (0xAA609803F36C8803868B43E89EF364C0)
Полное имя : 2. Пираты Карибского моря. Сундук мертвеца.2006.BDRip.1080p.Rus.Eng.mkv
Формат : Matroska
Версия формата : Version 4 / Version 2
Размер файла : 7,76 Гбайт
Продолжительность : 2 ч. 30 м.
Общий поток : 7378 Кбит/сек
Название фильма : Пираты Карибского моря: Сундук мертвеца.2006
Дата кодирования : UTC 2010-02-22 21:41:31
Программа кодирования : mkvmerge v5.8.0 ('No Sleep / Pillow') built on Sep 30 2012 10:57:14
Библиотека кодирования : libebml v1.3.0 + libmatroska v1.4.0
Видео
Идентификатор : 1
Формат : AVC
Формат/Информация : Advanced Video Codec
Профиль формата : [email protected]
Параметр CABAC формата : Да
Параметр ReFrames формата : 5 кадров
Идентификатор кодека : V_MPEG4/ISO/AVC
Продолжительность : 2 ч. 30 м.
Битрейт : 6096 Кбит/сек
Ширина : 1920 пикселей
Высота : 800 пикселей
Соотношение сторон : 2,40:1
Режим частоты кадров : Постоянный
Частота кадров : 23,976 кадра/сек
Цветовое пространство : YUV
Субдискретизация насыщенности : 4:2:0
Битовая глубина : 8 бит
Тип развёртки : Прогрессивная
Бит/(Пиксели*Кадры) : 0.166
Размер потока : 6,26 Гбайт (81%)
Заголовок : Rip by Boriy
Библиотека кодирования : x264 core 128 r2216 198a7ea
Настройки программы : cabac=1 / ref=5 / deblock=1:0:0 / analyse=0x3:0x113 / me=umh / subme=10 / psy=1 / psy_rd=1.00:0.10 / mixed_ref=1 / me_range=32 / chroma_me=1 / trellis=2 / 8x8dct=1 / cqm=0 / deadzone=21,11 / fast_pskip=0 / chroma_qp_offset=-3 / threads=12 / lookahead_threads=2 / sliced_threads=0 / nr=0 / decimate=0 / interlaced=0 / bluray_compat=0 / constrained_intra=0 / bframes=5 / b_pyramid=2 / b_adapt=2 / b_bias=0 / direct=3 / weightb=1 / open_gop=0 / weightp=2 / keyint=240 / keyint_min=23 / scenecut=40 / intra_refresh=0 / rc=2pass / mbtree=0 / bitrate=6096 / ratetol=1.0 / qcomp=0.60 / qpmin=0 / qpmax=69 / qpstep=4 / cplxblur=20.0 / qblur=0.5 / ip_ratio=1.40 / pb_ratio=1.30 / aq=1:0.80
Язык : English
Default : Да
Forced : Нет
Аудио #1
Идентификатор : 2
Формат : AC-3
Формат/Информация : Audio Coding 3
Расширение режима : CM (complete main)
Параметр Endianness формата : Big
Идентификатор кодека : A_AC3
Продолжительность : 2 ч. 30 м.
Вид битрейта : Постоянный
Битрейт : 640 Кбит/сек
Каналы : 6 каналов
Расположение каналов : Front: L C R, Side: L R, LFE
Частота : 48,0 КГц
Битовая глубина : 16 бит
Метод сжатия : С потерями
Размер потока : 690 Мбайт (9%)
Заголовок : Дубляж
Язык : Russian
Default : Да
Forced : Нет
Аудио #2
Идентификатор : 3
Формат : AC-3
Формат/Информация : Audio Coding 3
Расширение режима : CM (complete main)
Параметр Endianness формата : Big
Идентификатор кодека : A_AC3
Продолжительность : 2 ч. 30 м.
Вид битрейта : Постоянный
Битрейт : 640 Кбит/сек
Каналы : 6 каналов
Расположение каналов : Front: L C R, Side: L R, LFE
Частота : 48,0 КГц
Битовая глубина : 16 бит
Метод сжатия : С потерями
Размер потока : 690 Мбайт (9%)
Заголовок : Оригинал
Язык : English
Default : Нет
Forced : Нет
Текст #1
Идентификатор : 4
Формат : UTF-8
Идентификатор кодека : S_TEXT/UTF8
Идентификатор кодека/Информация : UTF-8 Plain Text
Заголовок : Forced
Язык : Russian
Default : Да
Forced : Да
Текст #2
Идентификатор : 5
Формат : UTF-8
Идентификатор кодека : S_TEXT/UTF8
Идентификатор кодека/Информация : UTF-8 Plain Text
Заголовок : Full
Язык : Russian
Default : Нет
Forced : Нет
Текст #3
Идентификатор : 6
Формат : UTF-8
Идентификатор кодека : S_TEXT/UTF8
Идентификатор кодека/Информация : UTF-8 Plain Text
Заголовок : Full
Язык : English
Default : Нет
Forced : Нет
Меню
00:00:00.000 : :Chapter 1
00:04:18.924 : :Chapter 2
00:09:53.009 : :Chapter 3
00:12:13.441 : :Chapter 4
00:19:09.064 : :Chapter 5
00:23:53.471 : :Chapter 6
00:30:15.480 : :Chapter 7
00:35:29.418 : :Chapter 8
00:40:32.929 : :Chapter 9
00:46:28.034 : :Chapter 10
00:50:25.563 : :Chapter 11
00:56:18.625 : :Chapter 12
00:59:52.380 : :Chapter 13
01:05:45.189 : :Chapter 14
01:11:55.853 : :Chapter 15
01:17:04.327 : :Chapter 16
01:22:10.256 : :Chapter 17
01:30:36.639 : :Chapter 18
01:34:38.171 : :Chapter 19
01:39:21.828 : :Chapter 20
01:44:52.408 : :Chapter 21
01:49:14.712 : :Chapter 22
01:54:55.805 : :Chapter 23
01:59:36.042 : :Chapter 24
02:04:59.908 : :Chapter 25
02:10:27.194 : :Chapter 26
02:16:20.629 : :Chapter 27
02:21:04.789 : :Chapter 28
02:30:39.030 : :Chapter 29

Скриншоты


Пираты Карибского моря: На краю Света / Pirates of the Caribbean: At World's End

Пираты Карибского моря: На краю Света / Pirates of the Caribbean: At World's End
Год выпуска: 2007
Страна: США
Жанр: фэнтези, приключения, боевик
Продолжительность: 168 мин. / 02:48:31
Перевод: Профессиональный (полное дублирование)
Режиссер: Гор Вербински, Роб Маршалл
Продюсер: Джерри Брукхаймер
Сценарий: Терри Россио, Тед Эллиотт
Бюджет: $300 000 000
Премьера в мире: 19 мая 2007
PG-13 - Детям до 13 лет просмотр не желателен
6.90 (214 412)

В ролях: Джонни Депп, Джеффри Раш, Орландо Блум, Кира Найтли, Джек Девенпорт, Джонатан Прайс, Ли Аренберг, Маккензи Крук, Дэмиан О’Хейр, Джиллз Нью
Описание: Наступают темные времена: век пиратов близится к завершению. Лорд Катлер Беккет из Ост-Индской компании заполучил контроль над навевающим ужас кораблем-призраком, Летучим Голландцем, и его злобным, мстительным капитаном, Дэйви Джоунсом. Теперь Летучий Голландец неустанно бороздит воды семи морей и, под командой адмирала Норрингтона, безжалостно уничтожает пиратские корабли. Уилл Тернер, Элизабет Суон и капитан Барбосса пускаются в отчаянное путешествие в поисках Девяти Баронов Пиратского Братства: с ними связана единственная надежда победить Беккета, Летучего Голландца и его армаду. Но один из Баронов пропал: капитан Джек Воробей, то ли лучший, то ли худший пират на свете. После неудачной встречи с чудовищем по имени Кракен он находится в плену у Дэйви Джоунса. Союз между нашими героями — включая Тию Дальму, Пинтела и Раджетти — непрочен, однако они должны сперва отправиться в опасный, экзотический Сингапур и биться с китайским пиратским капитаном Сяо Феном за мореходные карты и за корабль, который, ради спасения Джека, доставит их на край света.
Качество: BDRip 1080p
Формат: MKV
Видео кодек: x264
Аудио кодек: AC3
Видео: 1920x800, 5314 Kbps, 23.976 fps
Аудио #1: AC-3, 6 ch, 640 kbps (Rus)
Аудио #2: AC-3, 6 ch, 640 kbps (Eng)
Cубтитры: русские(полные, форсированные), английские

MI

Общее
Уникальный идентификатор : 228898967282427510518724560813007680801 (0xAC3456688D99D4229D6ECE8D8795B521)
Полное имя : 3. Пираты Карибского моря. На краю Света.2007.BDRip.1080p.Rus.Eng.mkv
Формат : Matroska
Версия формата : Version 4 / Version 2
Размер файла : 7,76 Гбайт
Продолжительность : 2 ч. 48 м.
Общий поток : 6596 Кбит/сек
Название фильма : Пираты Карибского моря: На краю Света.2007
Дата кодирования : UTC 2010-02-22 21:41:31
Программа кодирования : mkvmerge v5.8.0 ('No Sleep / Pillow') built on Sep 30 2012 10:57:14
Библиотека кодирования : libebml v1.3.0 + libmatroska v1.4.0
Видео
Идентификатор : 1
Формат : AVC
Формат/Информация : Advanced Video Codec
Профиль формата : [email protected]
Параметр CABAC формата : Да
Параметр ReFrames формата : 5 кадров
Идентификатор кодека : V_MPEG4/ISO/AVC
Продолжительность : 2 ч. 48 м.
Битрейт : 5314 Кбит/сек
Ширина : 1920 пикселей
Высота : 800 пикселей
Соотношение сторон : 2,40:1
Режим частоты кадров : Постоянный
Частота кадров : 23,976 кадра/сек
Цветовое пространство : YUV
Субдискретизация насыщенности : 4:2:0
Битовая глубина : 8 бит
Тип развёртки : Прогрессивная
Бит/(Пиксели*Кадры) : 0.144
Размер потока : 6,10 Гбайт (79%)
Заголовок : Rip by Boriy
Библиотека кодирования : x264 core 128 r2216 198a7ea
Настройки программы : cabac=1 / ref=5 / deblock=1:0:0 / analyse=0x3:0x113 / me=umh / subme=10 / psy=1 / psy_rd=1.00:0.10 / mixed_ref=1 / me_range=32 / chroma_me=1 / trellis=2 / 8x8dct=1 / cqm=0 / deadzone=21,11 / fast_pskip=0 / chroma_qp_offset=-3 / threads=12 / lookahead_threads=2 / sliced_threads=0 / nr=0 / decimate=0 / interlaced=0 / bluray_compat=0 / constrained_intra=0 / bframes=5 / b_pyramid=2 / b_adapt=2 / b_bias=0 / direct=3 / weightb=1 / open_gop=0 / weightp=2 / keyint=240 / keyint_min=23 / scenecut=40 / intra_refresh=0 / rc=2pass / mbtree=0 / bitrate=5314 / ratetol=1.0 / qcomp=0.60 / qpmin=0 / qpmax=69 / qpstep=4 / cplxblur=20.0 / qblur=0.5 / ip_ratio=1.40 / pb_ratio=1.30 / aq=1:0.80
Язык : English
Default : Да
Forced : Нет
Аудио #1
Идентификатор : 2
Формат : AC-3
Формат/Информация : Audio Coding 3
Расширение режима : CM (complete main)
Параметр Endianness формата : Big
Идентификатор кодека : A_AC3
Продолжительность : 2 ч. 48 м.
Вид битрейта : Постоянный
Битрейт : 640 Кбит/сек
Каналы : 6 каналов
Расположение каналов : Front: L C R, Side: L R, LFE
Частота : 48,0 КГц
Битовая глубина : 16 бит
Метод сжатия : С потерями
Размер потока : 771 Мбайт (10%)
Заголовок : Дубляж
Язык : Russian
Default : Да
Forced : Нет
Аудио #2
Идентификатор : 3
Формат : AC-3
Формат/Информация : Audio Coding 3
Расширение режима : CM (complete main)
Параметр Endianness формата : Big
Идентификатор кодека : A_AC3
Продолжительность : 2 ч. 48 м.
Вид битрейта : Постоянный
Битрейт : 640 Кбит/сек
Каналы : 6 каналов
Расположение каналов : Front: L C R, Side: L R, LFE
Частота : 48,0 КГц
Битовая глубина : 16 бит
Метод сжатия : С потерями
Размер потока : 771 Мбайт (10%)
Заголовок : Оригинал
Язык : English
Default : Нет
Forced : Нет
Текст #1
Идентификатор : 4
Формат : UTF-8
Идентификатор кодека : S_TEXT/UTF8
Идентификатор кодека/Информация : UTF-8 Plain Text
Заголовок : Forced
Язык : Russian
Default : Да
Forced : Да
Текст #2
Идентификатор : 5
Формат : UTF-8
Идентификатор кодека : S_TEXT/UTF8
Идентификатор кодека/Информация : UTF-8 Plain Text
Заголовок : Full
Язык : Russian
Default : Нет
Forced : Нет
Текст #3
Идентификатор : 6
Формат : UTF-8
Идентификатор кодека : S_TEXT/UTF8
Идентификатор кодека/Информация : UTF-8 Plain Text
Заголовок : Full
Язык : English
Default : Нет
Forced : Нет
Меню
00:00:00.000 : :Chapter 1
00:04:33.938 : :Chapter 2
00:10:01.808 : :Chapter 3
00:19:58.279 : :Chapter 4
00:26:07.481 : :Chapter 5
00:32:47.339 : :Chapter 6
00:39:40.335 : :Chapter 7
00:46:04.760 : :Chapter 8
00:51:31.963 : :Chapter 9
00:58:03.730 : :Chapter 10
01:04:50.677 : :Chapter 11
01:12:46.819 : :Chapter 12
01:17:54.877 : :Chapter 13
01:24:46.537 : :Chapter 14
01:28:41.356 : :Chapter 15
01:33:34.149 : :Chapter 16
01:38:05.671 : :Chapter 17
01:41:52.979 : :Chapter 18
01:48:12.652 : :Chapter 19
01:53:13.286 : :Chapter 20
01:59:31.372 : :Chapter 21
02:05:52.211 : :Chapter 22
02:09:13.244 : :Chapter 23
02:13:53.524 : :Chapter 24
02:23:19.254 : :Chapter 25
02:28:15.636 : :Chapter 26
02:34:29.217 : :Chapter 27
02:38:48.558 : :Chapter 28
02:48:30.100 : :Chapter 29

Скриншоты


Пираты Карибского моря: На странных берегах / Pirates of the Caribbean: On Stranger Tides

Пираты Карибского моря: На странных берегах / Pirates of the Caribbean: On Stranger Tides
Год выпуска: 2011
Страна: США
Жанр: фэнтези, приключения, боевик
Продолжительность: 136 мин. / 02:16:23
Перевод: Профессиональный (полное дублирование)
Режиссер: Гор Вербински, Роб Маршалл
Продюсер: Джерри Брукхаймер
Сценарий: Терри Россио, Тед Эллиотт
Бюджет: $250 000 000
Премьера в мире: 7 мая 2011
PG-13 - Детям до 13 лет просмотр не желателен
6.60 (137 639)

В ролях: Джонни Депп, Пенелопа Крус, Иэн МакШейн, Джеффри Раш, Ричард Гриффитс, Джуди Денч, Стивен Грэм, Джемма Уорд, Сэм Клафлин, Кит Ричардс
Описание: В новой истории о поисках истины, предательстве, вечной молодости и смертельной опасности капитану Джеку Воробью предстоит столкнуться с женщиной из своего прошлого Анжеликой. До самого конца не будет понятно, связывает ли их настоящая любовь, или же Анжелика искусно притворяется, чтобы вместе с Джеком добраться до таинственного источника вечной молодости. Она силой принуждает капитана Джека Воробья взойти на корабль «Месть Королевы Анны», которым управляет злодей Черная Борода. Джек Воробей оказывается в непростой ситуации: он не знает, чего ему бояться больше — ужасного злодея Черная Борода или же свою давнюю подругу Анжелику.
Качество: BDRip 1080p
Формат: AVI
Видео кодек: x264
Аудио кодек: AC3
Видео: 1920x800, 6867 Kbps, 23.976 fps
Аудио #1: AC-3, 6 ch, 640 kbps (Rus)
Аудио #2: AC-3, 6 ch, 640 kbps (Eng)
Cубтитры: русские(полные, форсированные), английские

MI

Общее
Уникальный идентификатор : 191887641824971013518969867364084674719 (0x905C372D4AD77F09940B0D4850FAF09F)
Полное имя : 4. Пираты Карибского моря. На странных берегах.2011.BDRip.1080p.Rus.Eng.mkv
Формат : Matroska
Версия формата : Version 4 / Version 2
Размер файла : 7,76 Гбайт
Продолжительность : 2 ч. 16 м.
Общий поток : 8149 Кбит/сек
Название фильма : Пираты Карибского моря: На странных берегах.2011
Дата кодирования : UTC 2010-02-22 21:41:31
Программа кодирования : mkvmerge v5.8.0 ('No Sleep / Pillow') built on Sep 30 2012 10:57:14
Библиотека кодирования : libebml v1.3.0 + libmatroska v1.4.0
Видео
Идентификатор : 1
Формат : AVC
Формат/Информация : Advanced Video Codec
Профиль формата : [email protected]
Параметр CABAC формата : Да
Параметр ReFrames формата : 5 кадров
Идентификатор кодека : V_MPEG4/ISO/AVC
Продолжительность : 2 ч. 16 м.
Битрейт : 6867 Кбит/сек
Ширина : 1920 пикселей
Высота : 800 пикселей
Соотношение сторон : 2,40:1
Режим частоты кадров : Постоянный
Частота кадров : 23,976 кадра/сек
Цветовое пространство : YUV
Субдискретизация насыщенности : 4:2:0
Битовая глубина : 8 бит
Тип развёртки : Прогрессивная
Бит/(Пиксели*Кадры) : 0.186
Размер потока : 6,39 Гбайт (82%)
Заголовок : Rip by Boriy
Библиотека кодирования : x264 core 128 r2216 198a7ea
Настройки программы : cabac=1 / ref=5 / deblock=1:0:0 / analyse=0x3:0x113 / me=umh / subme=10 / psy=1 / psy_rd=1.00:0.10 / mixed_ref=1 / me_range=32 / chroma_me=1 / trellis=2 / 8x8dct=1 / cqm=0 / deadzone=21,11 / fast_pskip=0 / chroma_qp_offset=-3 / threads=12 / lookahead_threads=2 / sliced_threads=0 / nr=0 / decimate=0 / interlaced=0 / bluray_compat=0 / constrained_intra=0 / bframes=5 / b_pyramid=2 / b_adapt=2 / b_bias=0 / direct=3 / weightb=1 / open_gop=0 / weightp=2 / keyint=240 / keyint_min=23 / scenecut=40 / intra_refresh=0 / rc=2pass / mbtree=0 / bitrate=6867 / ratetol=1.0 / qcomp=0.60 / qpmin=0 / qpmax=69 / qpstep=4 / cplxblur=20.0 / qblur=0.5 / ip_ratio=1.40 / pb_ratio=1.30 / aq=1:0.80
Язык : English
Default : Да
Forced : Нет
Аудио #1
Идентификатор : 2
Формат : AC-3
Формат/Информация : Audio Coding 3
Расширение режима : CM (complete main)
Параметр Endianness формата : Big
Идентификатор кодека : A_AC3
Продолжительность : 2 ч. 16 м.
Вид битрейта : Постоянный
Битрейт : 640 Кбит/сек
Каналы : 6 каналов
Расположение каналов : Front: L C R, Side: L R, LFE
Частота : 48,0 КГц
Битовая глубина : 16 бит
Метод сжатия : С потерями
Размер потока : 624 Мбайт (8%)
Заголовок : Дубляж
Язык : Russian
Default : Да
Forced : Нет
Аудио #2
Идентификатор : 3
Формат : AC-3
Формат/Информация : Audio Coding 3
Расширение режима : CM (complete main)
Параметр Endianness формата : Big
Идентификатор кодека : A_AC3
Продолжительность : 2 ч. 16 м.
Вид битрейта : Постоянный
Битрейт : 640 Кбит/сек
Каналы : 6 каналов
Расположение каналов : Front: L C R, Side: L R, LFE
Частота : 48,0 КГц
Битовая глубина : 16 бит
Метод сжатия : С потерями
Размер потока : 624 Мбайт (8%)
Заголовок : Оригинал
Язык : English
Default : Нет
Forced : Нет
Текст #1
Идентификатор : 4
Формат : UTF-8
Идентификатор кодека : S_TEXT/UTF8
Идентификатор кодека/Информация : UTF-8 Plain Text
Заголовок : Forced
Язык : Russian
Default : Да
Forced : Да
Текст #2
Идентификатор : 5
Формат : UTF-8
Идентификатор кодека : S_TEXT/UTF8
Идентификатор кодека/Информация : UTF-8 Plain Text
Заголовок : Full
Язык : Russian
Default : Нет
Forced : Нет
Текст #3
Идентификатор : 6
Формат : UTF-8
Идентификатор кодека : S_TEXT/UTF8
Идентификатор кодека/Информация : UTF-8 Plain Text
Заголовок : Full
Язык : English
Default : Нет
Forced : Нет
Меню
00:00:00.000 : :Chapter 1
00:03:34.168 : :Chapter 2
00:08:46.773 : :Chapter 3
00:15:56.080 : :Chapter 4
00:18:34.153 : :Chapter 5
00:21:15.315 : :Chapter 6
00:30:05.509 : :Chapter 7
00:36:56.755 : :Chapter 8
00:42:05.356 : :Chapter 9
00:48:20.021 : :Chapter 10
00:53:26.077 : :Chapter 11
00:55:42.963 : :Chapter 12
00:57:52.844 : :Chapter 13
01:00:47.476 : :Chapter 14
01:08:22.220 : :Chapter 15
01:11:41.337 : :Chapter 16
01:13:03.170 : :Chapter 17
01:14:16.743 : :Chapter 18
01:23:19.993 : :Chapter 19
01:26:49.621 : :Chapter 20
01:30:16.493 : :Chapter 21
01:35:43.737 : :Chapter 22
01:40:57.926 : :Chapter 23
01:43:07.555 : :Chapter 24
01:44:51.658 : :Chapter 25
01:48:53.609 : :Chapter 26
01:57:41.470 : :Chapter 27
02:02:21.375 : :Chapter 28
02:05:51.460 : :Chapter 29
02:07:26.805 : :Chapter 30
02:16:23.591 : :Chapter 31

Скриншоты




Последний раз редактировалось: -=DoC(ToP)=-™ (2013-04-29 21:57), всего редактировалось 2 раз(а)
[Профиль]  [ЛС] 

-=DoC(ToP)=-™ ®

Стаж: 5 лет 1 месяц

Сообщений: 472

Откуда: СЕВАСТОПОЛЬ

Создавать темы 25-Май-2012 23:42 (спустя 1 час 11 минут)

[Цитировать] 

Завтра снова встану на раздачу. Не удаляйте пожалуйста раздачу)
[Профиль]  [ЛС] 

Ruslan666815

Стаж: 8 лет 4 месяца

Сообщений: 286

Создавать темы 27-Авг-2012 19:48 (спустя 3 месяца 1 день)

[Цитировать] 

чето я провтыкал одну часть...
помогите найти что не смотрел?
смотрел 1 вроди как там где они монетку искали
2 где источник молодости
3 где оживляли джека...
[Профиль]  [ЛС] 

Lost_Mind

Стаж: 8 лет 7 месяцев

Сообщений: 259

Откуда: Из будущего

Создавать темы 27-Авг-2012 20:00 (спустя 11 минут)

[Цитировать] 

Ruslan666815
Сундук мертвеца - 2-я часть квадрологии
[Профиль]  [ЛС] 

larry5

Стаж: 5 лет

Сообщений: 14

Создавать темы 27-Ноя-2012 17:24 (спустя 2 месяца 30 дней)

[Цитировать] 

жаль нету оригинальной дорожки и субтитров... было бы круто
[Профиль]  [ЛС] 

-=DoC(ToP)=-™ ®

Стаж: 5 лет 1 месяц

Сообщений: 472

Откуда: СЕВАСТОПОЛЬ

Создавать темы 08-Янв-2013 14:19 (спустя 1 месяц 10 дней)

[Цитировать] 

larry5
Прошу Image020
добавлено спустя 2 минуты:
Торрент - файл заменён на BDRip 1080p!


Последний раз редактировалось: -=DoC(ToP)=-™ (2013-01-08 14:19), всего редактировалось 1 раз
[Профиль]  [ЛС] 

Проклятье

Стаж: 5 лет 1 месяц

Сообщений: 24

Создавать темы 10-Янв-2013 09:45 (спустя 1 день 19 часов)

[Цитировать] 

Что со скоростью??
[Профиль]  [ЛС] 

volond

Стаж: 8 лет 2 месяца

Сообщений: 25

Откуда: горпуха

Создавать темы 27-Янв-2013 00:11 (спустя 16 дней)

[Цитировать] 

хотел посмотреть пиратов, а тут такой бонус спасибо братиш
[Профиль]  [ЛС] 

Scar

Стаж: 3 года 6 месяцев

Сообщений: 58

Откуда: Стелла

Создавать темы 28-Май-2013 23:58 (спустя 4 месяца 1 день)

[Цитировать] 

Я тебя люблю ДОК!
[Профиль]  [ЛС] 

pirotexnik

Стаж: 6 лет 3 месяца

Сообщений: 20

Создавать темы 19-Окт-2013 10:52 (спустя 4 месяца 21 день)

[Цитировать] 

раздайте же, ну!
[Профиль]  [ЛС] 

Dex

Стаж: 6 лет 4 месяца

Сообщений: 75

Создавать темы 15-Май-2016 14:49 (спустя 2 года 6 месяцев)

[Цитировать] 

раздайте, пожалуйста
[Профиль]  [ЛС] 
Похожие темы
Форум Тема Автор Размер
Стратегии C&C Generals Project Raptor 8.3 (2011) (Spring Lark) (английский + русский) [пиратка] Anderrson 2,47 GB
Стратегии C&C Generals Zero Hour - Contra 007 Final (16.8) (Contra.cncguild) (только русский) [пиратка] Night-Prizrak 1,11 GB
Многопользовательские Counter-Strike 1.6 (2000) (Valve Corporation™) (только русский) [пиратка] serjant_f1 256 MB
Многопользовательские Minecraft 1.5.2 + Моды (2013) (Mojang) (только русский) [пиратка] [Portable] от Refrectos {Обновлено 10.09} голд 345 MB
Симуляторы и гонки Pure (2008) (Disney Interactive Studios / Новый Диск) (английский + русский) [пиратка] Clieft 3,24 GB
FPS (1st Person) S.T.A.L.K.E.R. - 30 новелл из Зоны [v.24.07 + АМК 1.4.1] (2010) (Arhara) (только русский) [пиратка] Clieft 4,27 GB
FPS (1st Person) S.T.A.L.K.E.R. - Зов Припяти: Sigerous MOD 2.2 переработанный Albor (2012) (Модострой Albor (+ Енот)) (только русский) [пиратка] Clieft 1,94 GB
FPS (1st Person) S.t.a.l.k.e.r.: Clear Sky - Cмертельная схватка (2011) (FANTOM 5338888) (только русский) [пиратка] Clieft 2,82 GB
Показать сообщения:    
Ответить на тему

Текущее время: 05-Дек 21:36

Часовой пояс: UTC + 3



Вы не можете начинать темы
Вы не можете отвечать на сообщения
Вы не можете редактировать свои сообщения
Вы не можете удалять свои сообщения
Вы не можете голосовать в опросах
Вы не можете прикреплять файлы к сообщениям
Вы не можете скачивать файлы