Секс как оружие геноцида (Ren-TV) [2012 г., Документальный, Познавательный, SATRip]

Ответить на тему
Статистика раздачи [Обновить пиров]
Нет
 
   
 
 
Автор
Сообщение

Magush ®

Стаж: 7 лет

Сообщений: 130

Откуда: Севастополь

Создавать темы 04-Июл-2012 16:54

[Цитировать] 

Секс как оружие геноцида
Год выпуска: 2012
Жанр: Документальный, Познавательный
Продолжительность: 00:59:42
Перевод: Не требуется
Телеканал: Ren-TV
В ролях: Жанна Фриске, Билл Гейтс, Джигурда и другие
Описание: Каждые 16 секунд на планете умирает один человек. Эксперты утверждают невероятное: идет геноцид человечества!.. Глобальный план по сокращению населения Земли уже введен в действие. И его главным орудием -- как это ни странно -- является секс...
Геноцид человечества...Почему-то именно сейчас смертность в большинстве цивилизованных стран на треть превышает показатели рождаемости. За 90 последних лет только в нашей стране было сделано 220 миллионов абортов. В год Россия не досчитывается более полутора миллионов новых граждан -- их убивают российские матери еще в своей утробе. Армию женщин-детоубийц дополняют миллионы женщин, страдающих бесплодием, а их, к примеру, в России -- почти половина всего женского населения. Что происходит?
В Европе -- деградация, генетические болезни и повышенный уровень смертности. В России смертность в разы превышает рождаемость. В странах третьего мира вымирают целые народы... За последние 50 лет на земном шаре в два раза увеличилось количество гомосексуалистов, педофилов и сексуальных маньяков, появились новые болезни, передающиеся половым путем, в том числе -- СПИД. Эксперты бьют тревогу -- в естественный ход эволюции как будто кто-то вмешался.
Сознание наших людей изменилось в корне. На протяжении последних 50 лет менялись представления людей о сексе. Одевались иначе. Сейчас, например, никого уже не удивишь голой поясницей и джинсами на бедрах. Да и танцевали по-другому. Что говорить об интимной жизни! Представления о ней еще совсем недавно были совершенно не такими, как сейчас.

MediaInfo

A:\Фильмы\Временные\Секс как оружие геноцида.avi
General
Complete name : A:\Фильмы\Временные\Секс как оружие геноцида.avi
Format : AVI
Format/Info : Audio Video Interleave
File size : 225 MiB
Duration : 59mn 42s
Overall bit rate : 526 Kbps
Writing library : MPlayer
Video #0
ID : 0
Format : MPEG-4 Visual
Format profile : [email protected]
Format settings, BVOP : No
Format settings, QPel : No
Format settings, GMC : No warppoints
Format settings, Matrix : Default (H.263)
Codec ID : DX50
Codec ID/Hint : DivX 5
Duration : 59mn 42s
Bit rate : 361 Kbps
Width : 512 pixels
Height : 288 pixels
Display aspect ratio : 16:9
Frame rate : 25.000 fps
Color space : YUV
Chroma subsampling : 4:2:0
Bit depth : 8 bits
Scan type : Interlaced
Scan order : Top Field First
Compression mode : Lossy
Bits/(Pixel*Frame) : 0.098
Stream size : 154 MiB (69%)
Writing library : Lavc52.0.0
Audio #1
ID : 1
Format : MPEG Audio
Format version : Version 1
Format profile : Layer 3
Mode : Joint stereo
Mode extension : MS Stereo
Codec ID : 55
Codec ID/Hint : MP3
Duration : 59mn 42s
Bit rate mode : Constant
Bit rate : 160 Kbps
Channel(s) : 2 channels
Sampling rate : 44.1 KHz
Compression mode : Lossy
Stream size : 68.3 MiB (30%)
Alignment : Split accross interleaves
Interleave, duration : 500 ms (12.50 video frames)
Interleave, preload duration : 500 ms
Качество: SATRip
Формат: AVI
Видео кодек: DivX
Аудио кодек: MP3
Видео: 512 x 288, 25.000 fps, ~526 Кбит/сек
Аудио: 44,1 КГц ,2 канала, ~160 Кбит/сек
Релиз группы:
[Профиль]  [ЛС] 

SAMSUNG

Стаж: 8 лет 7 месяцев

Сообщений: 25

Откуда: Город Русской Славы

Создавать темы 04-Июл-2012 19:00 (спустя 2 часа 5 минут)

[Цитировать] 

В ролях: Жанна Фриске, Билл Гейтс, Джигурда гремучая смесь)))
[Профиль]  [ЛС] 

PrINCE

Стаж: 8 лет 7 месяцев

Сообщений: 69

Откуда: Sevstar

Создавать темы 04-Июл-2012 20:25 (спустя 1 час 25 минут)

[Цитировать] 

ага, сто пудово геноцид ag
За последние 50 лет на земном шаре в два раза увеличилось количество гомосексуалистов, педофилов и сексуальных маньяков
За последние 50 лет население увеличилось более чем в 2 раза
1 миллиард — 1804 год
2 миллиарда — 1927 год
3 миллиарда — 1960 год
4 миллиарда — 1974 год[3]
5 миллиардов — 7 июля 1987 года. Загреб
6 миллиардов — 10 ноября 1999 года. Сараево
7 миллиардов — 31 октября 2011 года. Филиппины
Короче телевизионная страшилка для заполнения эфира
[Профиль]  [ЛС] 

aidriss

Стаж: 8 лет 7 месяцев

Сообщений: 111

Создавать темы 04-Июл-2012 21:10 (спустя 45 минут)

[Цитировать] 

PrINCE
А ты не задумывался за счёт каких стран растёт население?)
Те проблемы которые описывают актуальны для "прогрессивного" запада, а на "отсталом" востоке вооружённом более-менее современной медициной плодятся как кролики.


Последний раз редактировалось: aidriss (2012-07-04 21:11), всего редактировалось 1 раз
[Профиль]  [ЛС] 

StrangeR

Стаж: 8 лет 1 месяц

Сообщений: 1017

Создавать темы 04-Июл-2012 21:11 (спустя 17 секунд)

[Цитировать] 

Короче телевизионная страшилка для заполнения эфира
почему страшилка?
педрилы да маньяки все на учёт что ли становяться?
плодятся шо мухи,т.ч. в 2 раза это врядли.на 2 порядка...возможно!!!
[Профиль]  [ЛС] 

Rumor

Стаж: 8 лет 7 месяцев

Сообщений: 136

Создавать темы 04-Июл-2012 22:01 (спустя 50 минут)

[Цитировать] 

Олололо!
Еще одно говно фром рентв.
[Профиль]  [ЛС] 

aragorn

Стаж: 8 лет 7 месяцев

Сообщений: 57

Откуда: Севастополь Город Украинской Славы - жемчужина Украины

Создавать темы 04-Июл-2012 22:31 (спустя 29 минут)

[Цитировать] 

Вау! Сколько противных

_________________
Подпись отключена за нарушение правил форума
[Профиль]  [ЛС] 

Zavton

Стаж: 5 лет 11 месяцев

Сообщений: 14

Откуда: Украина

Создавать темы 05-Июл-2012 07:17 (спустя 8 часов)

[Цитировать] 

А во времена Римской Империи их что меньше было?Таких вот ребятушек всегда хватало, а сама проблема надумана. Фильм не стоит внимания. (Мое сугубо субъективное мнение)
[Профиль]  [ЛС] 

PrINCE

Стаж: 8 лет 7 месяцев

Сообщений: 69

Откуда: Sevstar

Создавать темы 05-Июл-2012 12:28 (спустя 5 часов)

[Цитировать] 

PrINCE
А ты не задумывался за счёт каких стран растёт население?)
Те проблемы которые описывают актуальны для "прогрессивного" запада, а на "отсталом" востоке вооружённом более-менее современной медициной плодятся как кролики.
авторы шедевра заявляют "идет геноцид человечества!"
о географической структуре народонаселения в этой фразе ни слова. Или "отсталый" восток мы к человечеству уже не относим?
назвали бы тогда "демографический кризис золотого миллиарда" или "депопуляция западной цивилизации"
а высосать сенсацию из пальца - обычное дело для такого уровня документалистики..
"{Кекс} как оружие геноцида" - подставляй в ковычки любое слово - "факты" для сенсации обязательно найдутся
И коврик готов:
[Профиль]  [ЛС] 

aidriss

Стаж: 8 лет 7 месяцев

Сообщений: 111

Создавать темы 05-Июл-2012 13:19 (спустя 51 минута)

[Цитировать] 

PrINCE
Ну то что они делают программы невменяемые это я согласен, но сама суть освещённой проблемы для запада вполне актуальна.
[Профиль]  [ЛС] 

uken090

Стаж: 8 лет 1 месяц

Сообщений: 14

Создавать темы 06-Июл-2012 10:48 (спустя 21 час)

[Цитировать] 

спасибо ad
[Профиль]  [ЛС] 
Показать сообщения:    
Ответить на тему

Текущее время: 09-Дек 01:07

Часовой пояс: UTC + 3



Вы не можете начинать темы
Вы не можете отвечать на сообщения
Вы не можете редактировать свои сообщения
Вы не можете удалять свои сообщения
Вы не можете голосовать в опросах
Вы не можете прикреплять файлы к сообщениям
Вы не можете скачивать файлы