Мрачные тени / Dark Shadows (Тим Бёртон) [2012 г., фэнтези, мелодрама, комедия, BDRip 720p]

Ответить на тему
Статистика раздачи [Обновить пиров]
Нет
 
   
 
 
Автор
Сообщение

Magush ®

Стаж: 7 лет

Сообщений: 130

Откуда: Севастополь

Создавать темы 04-Сен-2012 08:18

[Цитировать] 

Мрачные тени / Dark Shadows

<center><img src=http://images.sevstar.net/images_tracker/481b274c71355ef890b8a31f1e034809.png></center>

Год выпуска: 2012
Страна: США
Жанр: фэнтези, мелодрама, комедия
Продолжительность: 01:53:04
Перевод: Дублированный [чистый] + Оригинальная дорожка
Субтитры: Румынские
Режиссер: Тим Бёртон
Продюсер: Ричард Д. Занук, Кристи Дембровски, Джонни Депп
Сценарий: Сет Грэм-Смит, Дэн Кертис, Джон Огаст
Бюджет: $150 000 000
Премьера в мире: 9 мая 2012
PG-13 - Детям до 13 лет просмотр не желателен
6.50 (44 490)

В ролях: Джонни Депп, Мишель Пфайффер, Хелена Бонем Картер, Ева Грин, Джеки Эрл Хейли, Джонни Ли Миллер, Белла Хиткот, Хлоя Грейс Морец, Гулливер МакГрат
Описание: Владелец поместья Коллинвуд, Барнабас Коллинз, богат, властен и слывет неисправимым Казановой, пока не совершает роковую ошибку, разбив сердце Анжелики Бошар. Будучи ведьмой в буквальном смысле этого слова, она обрекает его на судьбу, худшую, чем сама смерть — обращает его в вампира и хоронит заживо. Два века спустя Барнабаса случайно освобождают из склепа, и тот оказывается в очень изменившемся мире 1972 года. Он возвращается в Коллинвуд и находит в руинах это некогда величественное здание. Жалкие потомки его семьи сохранились лишь немногим лучше родового гнезда, и у каждого из них есть свои «скелеты в шкафу».

Инфо-файл

Общее
Уникальный идентификатор : 178303552781179663711677391746902543021 (0x862403E0D13D4BA7A613EBA542044AAD)
Полное имя : Dark.Shadows.2012.720p.BluRay.x264.Rus.Eng-HDChina.mkv
Формат : Matroska
Размер файла : 5,50 Гбайт
Продолжительность : 1 ч. 53 м.
Общий поток : 6959 Кбит/сек
Название фильма : Dark.Shadows.2012.720p.BluRay.x264.DTS.RoSubbed-HDChina - DoomS @ filelist.ro
Дата кодирования : UTC 2012-09-03 22:47:35
Программа кодирования : mkvmerge v5.2.0 ('I can't explain') built on Dec 18 2011 18:12:03
Библиотека кодирования : libebml v1.2.3 + libmatroska v1.3.0
Видео
Идентификатор : 1
Формат : AVC
Формат/Информация : Advanced Video Codec
Профиль формата : [email protected]
Параметр CABAC формата : Да
Параметр ReFrames формата : 9 кадров
Идентификатор кодека : V_MPEG4/ISO/AVC
Продолжительность : 1 ч. 53 м.
Битрейт : 5000 Кбит/сек
Ширина : 1280 пикс.
Высота : 720 пикс.
Соотношение сторон : 16:9
Частота кадров : 23,976 кадр/сек
Цветовое пространство : YUV
Подвыборка цветности : 4:2:0
Битовая глубина : 8 бит
Тип развёртки : Прогрессивная
Бит/(Пиксели*Кадры) : 0.226
Размер потока : 3,84 Гбайт (70%)
Библиотека кодирования : x264 core 125 r2208 d9d2288
Настройки программы : cabac=1 / ref=9 / deblock=1:-3:-3 / analyse=0x3:0x113 / me=umh / subme=11 / psy=1 / psy_rd=1.00:0.05 / mixed_ref=1 / me_range=32 / chroma_me=1 / trellis=2 / 8x8dct=1 / cqm=0 / deadzone=21,11 / fast_pskip=0 / chroma_qp_offset=-3 / threads=18 / lookahead_threads=3 / sliced_threads=0 / nr=0 / decimate=1 / interlaced=0 / bluray_compat=0 / constrained_intra=0 / bframes=8 / b_pyramid=2 / b_adapt=2 / b_bias=0 / direct=3 / weightb=1 / open_gop=0 / weightp=2 / keyint=240 / keyint_min=24 / scenecut=40 / intra_refresh=0 / rc_lookahead=240 / rc=2pass / mbtree=1 / bitrate=5000 / ratetol=1.0 / qcomp=0.70 / qpmin=0 / qpmax=69 / qpstep=4 / cplxblur=20.0 / qblur=0.5 / ip_ratio=1.20 / aq=1:1.00
Язык : English
Аудио #1
Идентификатор : 2
Формат : AC-3
Формат/Информация : Audio Coding 3
Расширение режима : CM (complete main)
Идентификатор кодека : A_AC3
Продолжительность : 1 ч. 53 м.
Вид битрейта : Постоянный
Битрейт : 448 Кбит/сек
Каналы : 6 каналов
Расположение каналов : Front: L C R, Side: L R, LFE
Частота : 48,0 КГц
Битовая глубина : 16 бит
Метод сжатия : С потерями
Размер потока : 362 Мбайт (6%)
Заголовок : BD CEE
Язык : Russian
Аудио #2
Идентификатор : 3
Формат : DTS
Формат/Информация : Digital Theater Systems
Идентификатор кодека : A_DTS
Продолжительность : 1 ч. 53 м.
Вид битрейта : Постоянный
Битрейт : 1510 Кбит/сек
Каналы : 6 каналов
Расположение каналов : Front: L C R, Side: L R, LFE
Частота : 48,0 КГц
Битовая глубина : 16 бит
Метод сжатия : С потерями
Размер потока : 1,19 Гбайт (22%)
Язык : English
Текст
Идентификатор : 4
Формат : UTF-8
Идентификатор кодека : S_TEXT/UTF8
Идентификатор кодека/Информация : UTF-8 Plain Text
Заголовок : Romanian
Язык : Russian
Меню
00:00:00.000 : en:00:00:00.000
00:12:25.203 : en:00:12:25.203
00:19:57.780 : en:00:19:57.780
00:30:21.486 : en:00:30:21.486
00:38:55.041 : en:00:38:55.041
00:49:48.235 : en:00:49:48.235
01:00:11.066 : en:01:00:11.066
01:09:47.392 : en:01:09:47.392
01:19:36.772 : en:01:19:36.772
01:29:05.340 : en:01:29:05.340
01:39:36.888 : en:01:39:36.888
01:48:26.041 : en:01:48:26.041
Качество: BDRip
Формат: MKV
Видео кодек: MPEG-4 AVC
Аудио кодек: AC3, DTS
Видео: 1280x720, 23,976 кадр/сек, 5000 Кбит/с
Аудио: Русский: 48,0 КГц, 6 каналов, 448 Кбит/с; Английский: 48,0 КГц, 6 каналов, 1536 Кбит/с
Релиз группы:


Последний раз редактировалось: Magush (2012-09-04 09:32), всего редактировалось 1 раз
[Профиль]  [ЛС] 

Blondy

Стаж: 8 лет 7 месяцев

Сообщений: 614

Откуда: из сумрака...

Создавать темы 04-Сен-2012 09:07 (спустя 48 минут)

[Цитировать] 

Magush звук дублированный какой? с TS или чистый?
[Профиль]  [ЛС] 

игорь7773

Стаж: 8 лет 7 месяцев

Сообщений: 3

Создавать темы 16-Сен-2012 02:25 (спустя 11 дней)

[Цитировать] 

херня.
[Профиль]  [ЛС] 
Показать сообщения:    
Ответить на тему

Текущее время: 10-Дек 21:29

Часовой пояс: UTC + 3



Вы не можете начинать темы
Вы не можете отвечать на сообщения
Вы не можете редактировать свои сообщения
Вы не можете удалять свои сообщения
Вы не можете голосовать в опросах
Вы не можете прикреплять файлы к сообщениям
Вы не можете скачивать файлы