Рыцарь дорог 2008 / Knight Rider 2008 Сезон 1 эпизод 0-17(17)(Стив Шилл / Steve Schill)[2008 г., боевик, WEB-DLRip 400p](СТС)

Ответить на тему
Статистика раздачи [Обновить пиров]
Нет
 
   
 
 
Автор
Сообщение

-=DoC(ToP)=-™ ®

Стаж: 5 лет 1 месяц

Сообщений: 472

Откуда: СЕВАСТОПОЛЬ

Создавать темы 17-Сен-2012 14:03

[Цитировать] 

--Рыцарь дорог / Knight Rider
Год выпуска: 2008
Страна: США
Жанр: приключения, фантастика, боевик
Продолжительность: ~ 41 мин
Перевод: Профессиональный многоголосый закадровый(СТС)
Режиссер: Стив Шилл
В ролях: Джастин Бруенинг, Дианна Руссо, Сидни Тамиа Пуатье, Брюс Дэвисон, Дэвид Хэсселхофф, Грег Эллис, Крис Малки, Вейн Кассерман, Джонатан Чейз, Сьюзэн Гибни
Описание: 24-летняя аспирантка Стенфордского университета, Сара Грейман, хочет идти по стопам своего гениального отца Чарльза. Однако ее жизнь резко меняется в тот момент, когда ее пытаются похитить. С ней связывается КИТТ — машина, созданная ее отцом, и сообщает, что ее отец в опасности. Сара и КИТТ едут за другом детства Сары — Майком Трэйсером, который должен помочь им выяснить, кто такой ее отец на самом деле, и кто пытается выкрасть КИТТа.
Качество: WEB-DLRip
Формат: AVI
Видео кодек: XviD
Аудио кодек: AC3
Видео: 720x400 (1.80:1), 23.976 fps, XviD build 50 ~1999 kbps avg, 0.29 bit/pixel
Аудио: 48 kHz, AC3 Dolby Digital, 2/0 (L,R) ch, ~192 kbps(СТС)
Аудио 2:48 kHz, AC3 Dolby Digital, 2/0 (L,R) ch, ~192 kbps(Original)
Релиз группы:

MI

General
Complete name : D:\Knight Rider 2008 Season 1 WEB-DLRip\Knight Rider.s01e01.rus.eng.avi
Format : AVI
Format/Info : Audio Video Interleave
File size : 716 MiB
Duration : 42mn 38s
Overall bit rate : 2 349 Kbps
Writing application : VirtualDubMod 1.5.10.2 (build 2542/release)
Writing library : VirtualDubMod build 2542/release
Video
ID : 0
Format : MPEG-4 Visual
Format profile : Advanced [email protected]
Format settings, BVOP : 1
Format settings, QPel : No
Format settings, GMC : No warppoints
Format settings, Matrix : Default (MPEG)
Codec ID : XVID
Codec ID/Hint : XviD
Duration : 42mn 38s
Bit rate : 2 000 Kbps
Width : 720 pixels
Height : 400 pixels
Display aspect ratio : 16:9
Frame rate : 23.976 fps
Color space : YUV
Chroma subsampling : 4:2:0
Bit depth : 8 bits
Scan type : Progressive
Compression mode : Lossy
Bits/(Pixel*Frame) : 0.290
Stream size : 610 MiB (85%)
Writing library : XviD 1.2.1 (UTC 2008-12-04)
Audio #1
ID : 1
Format : AC-3
Format/Info : Audio Coding 3
Mode extension : CM (complete main)
Codec ID : 2000
Duration : 42mn 38s
Bit rate mode : Constant
Bit rate : 192 Kbps
Channel(s) : 2 channels
Channel positions : Front: L R
Sampling rate : 48.0 KHz
Bit depth : 16 bits
Compression mode : Lossy
Stream size : 58.5 MiB (8%)
Alignment : Split accross interleaves
Interleave, duration : 42 ms (1.00 video frame)
Interleave, preload duration : 500 ms
Audio #2
ID : 2
Format : AC-3
Format/Info : Audio Coding 3
Mode extension : CM (complete main)
Codec ID : 2000
Duration : 31mn 57s
Bit rate mode : Constant
Bit rate : 192 Kbps
Channel(s) : 2 channels
Channel positions : Front: L R
Sampling rate : 48.0 KHz
Bit depth : 16 bits
Compression mode : Lossy
Stream size : 43.9 MiB (6%)
Alignment : Split accross interleaves
Interleave, duration : 56 ms (1.33 video frame)
Interleave, preload duration : 500 ms

Screenshots

[Профиль]  [ЛС] 
Похожие темы
Форум Тема Автор Размер
Аудиокниги Белянин Андрей - "Рыжий рыцарь" [Морозова Татьяна, Горбунов Сергей, 2007] Oldket 1,26 GB
Мультфильмы Джастин и рыцари доблести / Justin and the Knights of Valour (Мануэль Сисилия) [2013 г., мультфильм, приключения, DVDRip] DTstimp 1,38 GB
Показать сообщения:    
Ответить на тему

Текущее время: 04-Дек 23:23

Часовой пояс: UTC + 3



Вы не можете начинать темы
Вы не можете отвечать на сообщения
Вы не можете редактировать свои сообщения
Вы не можете удалять свои сообщения
Вы не можете голосовать в опросах
Вы не можете прикреплять файлы к сообщениям
Вы не можете скачивать файлы