Свежее мясо / Fresh meat / Сезон: 2 / Серии: 8 из 8 (полный сезон) (Дэвид Керр, Ник Вуд) [2012 г., Драма, комедия, HDTVRip]

Ответить на тему
Статистика раздачи [Обновить пиров]
Нет
 
   
 
 
Автор
Сообщение

Dazdranagon ®

Стаж: 8 лет 7 месяцев

Сообщений: 34

Откуда: Севастополь

Создавать темы 18-Окт-2012 22:51

[Цитировать] 

Свежее мясо / Fresh meat / Сезон: 2 / Серии: 8 из 8 (полный сезон)
Год выпуска: 2012
Страна: Великобритания
Жанр: Драма, комедия
Продолжительность: ~ 40 минут
Перевод: Любительский (одноголосый)
Режиссер: Дэвид Керр, Ник Вуд
В ролях: Кимберли Никсон, Шарлотта Ричи, Зэйв Эштон, Грег МакХью, Джо Томас, Jack Whitehall, Тони Гарднер, Роберт Уэбб, Адам Джиллен, Jack Fox
Описание: Сериал рассказывает о группе студентов на пороге самого захватывающего периода их жизни, учеба в университете! Первый раз вдали от дома, на пороге взрослой жизни, они собираются выяснить, кто они есть на самом деле. С момента, как они заселяются в общежитие, им суждено столкнуться с ужасным поведением и совершать страшные ошибки.
Доп. информация: Перевод и озвучка - КетчупТВ
Внимание! Присутствует ненормативная лексика!

MI

Общее
Полное имя : F:\Fresh Meat s02 ketchuptv 400p\Fresh Meat s02e01 ketchuptv 400p.avi
Формат : AVI
Формат/Информация : Audio Video Interleave
Размер файла : 494 Мбайт
Продолжительность : 41 м.
Общий поток : 1655 Кбит/сек
Программа кодирования : VirtualDubMod 1.5.10.2 (build 2540/release)
Библиотека кодирования : VirtualDubMod build 2540/release
Видео
Идентификатор : 0
Формат : MPEG-4 Visual
Профиль формата : [email protected]
Параметр BVOP формата : Нет
Параметр QPel формата : Нет
Параметр GMC формата : Без точки перехода
Параметр матрицы формата : Default (H.263)
Идентификатор кодека : XVID
Идентификатор кодека/Подсказка : XviD
Продолжительность : 41 м.
Битрейт : 1485 Кбит/сек
Ширина : 720 пикселей
Высота : 400 пикселей
Соотношение сторон : 16:9
Частота кадров : 25,000 кадров/сек
Цветовое пространство : YUV
Субдискретизация насыщенности : 4:2:0
Битовая глубина : 8 бит
Тип развёртки : Прогрессивная
Метод сжатия : С потерями
Бит/(Пиксели*Кадры) : 0.206
Размер потока : 443 Мбайт (90%)
Библиотека кодирования : XviD 63
Аудио
Идентификатор : 1
Формат : MPEG Audio
Версия формата : Version 1
Профиль формата : Layer 3
Режим : Joint stereo
Расширение режима : MS Stereo
Идентификатор кодека : 55
Идентификатор кодека/Подсказка : MP3
Продолжительность : 41 м.
Вид битрейта : Постоянный
Битрейт : 160 Кбит/сек
Каналы : 2 канала
Частота : 48,0 КГц
Метод сжатия : С потерями
Размер потока : 47,8 Мбайт (10%)
Выравнивание : Разделение по промежуткам
Продолжительность промежутка : 40 мс. (1,00 видеокадр)
Время предзагрузки промежутка : 500 мс.
Библиотека кодирования : LAME3.97

Раздача ведется путем добавления новых серий!!!

Внимание! Раздача ведётся путём добавления новых серий; при каждом добавлении создётся новый торрент. Чтобы начать докачку новой серии, пользователям необходимо сделать следующее:
(1) остановить скачивание,
(2) удалить старый торрент-файл у себя из клиента (старые серии удалять не надо),
(3) скачать новый торрент-файл из раздачи и запустить его у себя в клиенте вместо старого, при этом указать клиенту путь в старую папку куда и должно происходить скачивание новых серий.
Ваш клиент при этом должен произвести хеширование (проверку) старой папки (если не производит сам - помогите ему сделать это), и будет докачивать только те серии которых у вас ещё нет. Старые серии при этом не удаляются, а продолжают раздаваться!
Eсли вы уже посмотрели и удалили старые серии, то предотвратить повторную закачку старых серий можно, сняв галочки в соответсвующих местах при запуске нового торрента. По возможности, желательно не удалять старые серии как можно дольше чтобы релизёр не столько продолжал раздавать старые серии, а смог сконцентрироваться на новых.
Качество: HDTVRip
Формат: AVI
Видео кодек: XviD
Аудио кодек: MP3
Видео: 720x400 (1.80:1), 25 fps, 1485Kbps, 0.21 bit/pixel
Аудио: 48 kHz, stereo, 160Kbps



Последний раз редактировалось: Dazdranagon (2013-02-08 00:08), всего редактировалось 8 раз(а)
[Профиль]  [ЛС] 

Dazdranagon ®

Стаж: 8 лет 7 месяцев

Сообщений: 34

Откуда: Севастополь

Создавать темы 27-Окт-2012 16:03 (спустя 8 дней)

[Цитировать] 

+ 2 серия
[Профиль]  [ЛС] 

Dazdranagon ®

Стаж: 8 лет 7 месяцев

Сообщений: 34

Откуда: Севастополь

Создавать темы 16-Дек-2012 19:59 (спустя 1 месяц 20 дней)

[Цитировать] 

+ 3 серия
[Профиль]  [ЛС] 

шамс2

Стаж: 7 лет 8 месяцев

Сообщений: 29

Откуда: оттуда

Создавать темы 16-Дек-2012 20:24 (спустя 25 минут)

[Цитировать] 

ииии как***????
[Профиль]  [ЛС] 

MaxVolkov

Стаж: 4 года 6 месяцев

Сообщений: 1

Откуда: Sevastopol`

Создавать темы 04-Янв-2013 12:18 (спустя 18 дней)

[Цитировать] 

круть)))) ay
[Профиль]  [ЛС] 

Dazdranagon ®

Стаж: 8 лет 7 месяцев

Сообщений: 34

Откуда: Севастополь

Создавать темы 08-Фев-2013 00:08 (спустя 1 месяц 3 дня)

[Цитировать] 

добавлены все серии 2-го сезона
[Профиль]  [ЛС] 

Наташуська

Стаж: 6 лет 8 месяцев

Сообщений: 2

Создавать темы 15-Янв-2014 16:56 (спустя 11 месяцев 7 дней)

[Цитировать] 

раздайте
[Профиль]  [ЛС] 
Показать сообщения:    
Ответить на тему

Текущее время: 10-Дек 04:03

Часовой пояс: UTC + 3



Вы не можете начинать темы
Вы не можете отвечать на сообщения
Вы не можете редактировать свои сообщения
Вы не можете удалять свои сообщения
Вы не можете голосовать в опросах
Вы не можете прикреплять файлы к сообщениям
Вы не можете скачивать файлы