MTV Europe Music Awards 2012 / MTV EMA 2012 [2012 г., Церемония награждения, DVB]

Ответить на тему
Статистика раздачи [Обновить пиров]
Нет
 
   
 
 
Автор
Сообщение

David_0401 ®

Стаж: 8 лет 4 месяца

Сообщений: 73

Создавать темы 13-Ноя-2012 21:21

[Цитировать] 

MTV Europe Music Awards 2012 / MTV EMA 12
Год выпуска: 2012
Страна: Германия
Жанр: Церемония награждения
Продолжительность: 01:30:41
Перевод: Профессиональный (двухголосый) MTV Russia
Премьера в мире: 11.11.12
Описание: Год 2012 – пошёл обратный отсчёт. Близится событие, которого ждал весь земной шар. Нет, мы говорим не о конце света… Мы говорим о церемонии MTV EMA 2012 во Франкфурте!
Нет сомнений, что церемония EMA давно стала международной. Прошлогоднее шоу в Белфасте вела удивительная Селена Гомез, а какие артисты выходили на сцену - Леди Гага, Джастин Бибер, группа Queen! И первая в истории награда Лучшему Исполнителю Мира, которую завоевала корейская группа BigBang. В этом году весь мир будет следить за церемонией EMA 2012, которая станет ещё ярче и масштабнее!
Церемония MTV EMA 2012 будет транслироваться 11 ноября 2012 года из Festhalle во Франкфурте, Германия. Заходи на сайт mtvema.com, чтобы узнать самые свежие новости, увидеть новые фото и видео – тебя ждёт множество сюрпризов! И не забудь отметить в календаре 11 ноября – это будет незабываемый вечер! Фанаты по всему миру включат свои телевизоры, чтобы увидеть, как их кумиры получают награды. Не пропусти главное международное музыкальное событие года!
Performs:
01. Rita Ora — R.I.P.
02. Fun — We Are Young
03. Carly Rae Jepsen — Call Me Maybe
04. Alicia Keys — New Day / Girl on Fire
05. No Doubt — Looking Hot
06. The Killers — Runaways
07. PSY — Gangnam Style
08. Muse — Madness
09. Pitbull — Don't Stop the Party
10. Taylor Swift — We Are Never Ever Getting Back Together-

Winner Nominations

Best Song: Carly Rae Jepsen — "Call Me Maybe"
Best Video: Psy — "Gangnam Style"
Best Female: Taylor Swift
Best Male: Justin Bieber
Best New Act: One Direction
Best Pop: Justin Bieber
Best Rock: Linkin Park
Best Alternative: Lana Del Rey
Best Electronic: David Guetta
Best Hip-Hop: Nicki Minaj
Best Live Act: Taylor Swift
Best World Stage Performance: Justin Bieber
Best Push Act: Carly Rae Jepsen
Biggest Fans: One Direction
Best Look: Taylor Swift
Best Worldwide Act: Han Geng
Global Icon: Whitney Houston
-

MI

General
(MYDIMKA).mpg
Format : MPEG-PS
File size : 3.88 GiB
Duration : 1h 30mn
Overall bit rate mode : Variable
Overall bit rate : 6 120 Kbps
Video
ID : 224 (0xE0)
Format : MPEG Video
Format version : Version 2
Format profile : [email protected]
Format settings, BVOP : Yes
Format settings, Matrix : Custom
Duration : 1h 30mn
Bit rate mode : Variable
Bit rate : 5 806 Kbps
Maximum bit rate : 15.0 Mbps
Width : 720 pixels
Height : 576 pixels
Display aspect ratio : 4:3
Frame rate : 25.000 fps
Standard : PAL
Color space : YUV
Chroma subsampling : 4:2:0
Bit depth : 8 bits
Scan type : Interlaced
Scan order : Top Field First
Compression mode : Lossy
Bits/(Pixel*Frame) : 0.560
Stream size : 3.68 GiB (95%)
Audio
ID : 192 (0xC0)
Format : MPEG Audio
Format version : Version 1
Format profile : Layer 2
Duration : 1h 30mn
Bit rate mode : Constant
Bit rate : 192 Kbps
Channel(s) : 2 channels
Sampling rate : 48.0 KHz
Compression mode : Lossy
Delay relative to video : 16ms
Stream size : 125 MiB (3%)
- - Рип чистый. Без посторонних надписей. Выкладывается как есть.
Качество: DVB
Формат: MPG
Видео кодек: MPG2
Аудио кодек: MP2
Видео: 720x576 (4:3) 25.00fps 5 810 Kbps, 0.560 bit/pixel
Аудио: MPEG Audio 48000Hz stereo 192 Кбит/сек--
[Профиль]  [ЛС] 

David_0401 ®

Стаж: 8 лет 4 месяца

Сообщений: 73

Создавать темы 21-Ноя-2012 16:17 (спустя 7 дней)

[Цитировать] 

Перезалито в лучшем качестве
[Профиль]  [ЛС] 

sanpl

Стаж: 8 лет 7 месяцев

Сообщений: 232

Создавать темы 21-Ноя-2012 22:13 (спустя 5 часов)

[Цитировать] 

Лучший рок исполнитель!-заслужено!
[Профиль]  [ЛС] 

Aciago

Стаж: 7 лет 9 месяцев

Сообщений: 845

Откуда: СССР

Создавать темы 21-Ноя-2012 23:54 (спустя 1 час 41 минута)

[Цитировать] 

Скачаю только ради 07. PSY — Gangnam Style , остальное аццтой. ag
[Профиль]  [ЛС] 

ravenwork

Стаж: 8 лет 7 месяцев

Сообщений: 26

Создавать темы 24-Ноя-2012 09:30 (спустя 2 дня 9 часов)

[Цитировать] 

Лучший рок исполнитель!-заслужено!
абсолютно согласен! ar
[Профиль]  [ЛС] 
Показать сообщения:    
Ответить на тему

Текущее время: 09-Дек 14:30

Часовой пояс: UTC + 3



Вы не можете начинать темы
Вы не можете отвечать на сообщения
Вы не можете редактировать свои сообщения
Вы не можете удалять свои сообщения
Вы не можете голосовать в опросах
Вы не можете прикреплять файлы к сообщениям
Вы не можете скачивать файлы