Однажды в Сказке / Once Upon a Time / Сезон: 2 / Серии: 1-16 из 22 (Грег Биман, Марк Майлод, Дин Уайт) [2012, драма, фэнтези, WEB-DL 720p] DUB (Невафильм) + Rus Sub (Amega Death - LeksiSL) + Original

Ответить на тему
Статистика раздачи [Обновить пиров]
Нет
 
   
 
 
Автор
Сообщение

-=DoC(ToP)=-™ ®

Стаж: 5 лет 1 месяц

Сообщений: 472

Откуда: СЕВАСТОПОЛЬ

Создавать темы 22-Дек-2012 15:56

[Цитировать] 

- Год выпуска: 2011
Страна: США
Жанр: фэнтези, драма, мелодрама, детектив, приключения
Продолжительность: 45 мин.
Перевод: Полное дублирование (Невафильм)
Русские субтитры: Amega Death - LeksiSL
Режиссер: Дин Уайт, Милан Чейлов, Ральф Хемекер
Продюсер: Кэти Гилрой-Серида, Адам Хоровиц, Стив Перлман
Сценарий: Адам Хоровиц, Эдвард Китсис, Джейн Эспенсон
8.30 (56 577)

В ролях: Джиннифер Гудвин, Дженнифер Моррисон, Роберт Карлайл, Лана Паррилла, Джаред Гилмор, Джошуа Даллас, Рафаэль Сбардж, Меган Ори, Джеми Дорнан, Беверли Эллиотт
Описание: Сюжет фэнтези разворачивается в двух мирах — современном и сказочном. Жизнь 28-летней Эммы Свон меняется, когда ее 10-летний сын Генри, от которого она отказалась много лет назад, находит Эмму и объявляет, что она является дочерью Прекрасного Принца и Белоснежки. Само собой разумеется, у мальчишки нет никаких сомнений, что параллельно нашему существует альтернативный сказочный мир — город Сторибрук, в котором в итоге оказывается Эмма. Постепенно героиня привязывается к необычному мальчику и странному городу, жители которого «забыли», кем они были в прошлом. А все из-за проклятия Злой Королевы (по совместительству приемной матери Генри), с помощью которого колдунья остановила время в сказочной стране. Однако стоит протянуть руку — и сказка оживет. Эпическая битва за будущее двух миров начинается, но, чтобы одержать победу, Эмме придется принять свою судьбу...
Качество: WEB-DLRip
Формат: MKV
Видео кодек: H.26x
Аудио кодек: AC3
Видео: AVC, 1280x720 (16:9), 23.976 fps, 3 969 Kbps (0.180 bit/pixel)
Аудио: AC-3, 48.0 KHz, 2 ch, 192 Kbps, CBR

ВНИМАНИЕ! РАЗДАЧА ВЕДЕТСЯ ПУТЕМ ДОБАВЛЕНИЯ НОВЫХ СЕРИЙ!

Внимание! Раздача ведётся путём добавления новых серий; при каждом добавлении создётся новый торрент. Чтобы начать докачку новой серии, пользователям необходимо сделать следующее: (1) остановить скачивание, (2) удалить старый торрент у себя из клиента (старые серии удалять не надо), (3) скачать новый торрент и запустить его у себя в клиенте вместо старого, при этом указать клиенту путь в старую папку куда и должно происходить скачивание новых серий.
Ваш клиент при этом должен произвести хэширование (проверку) старой папки (если не производит сам - помогите ему сделать это), и будет докачивать только те серии которых у вас ещё нет. Старые серии при этом не удаляются, а продолжают раздаваться!
Eсли вы уже удалили старые серии, то предотвратить повторную закачку старых серий можно, отжав галочку в соответствующих местах при запуске нового торрента.

MI

Format : Matroska
Format version : Version 2
File size : 1.40 GiB
Duration : 43mn 11s
Overall bit rate : 4 641 Kbps
Movie name : Однажды / Once Upon A Time / Сезон: 02 / Серия: 01
Encoded date : UTC 2012-11-29 18:17:28
Writing application : mkvmerge v5.8.0 ('No Sleep / Pillow') built on Sep 2 2012 15:37:04
Writing library : libebml v1.2.3 + libmatroska v1.3.0
Video
ID : 1
Format : AVC
Format/Info : Advanced Video Codec
Format profile : [email protected]
Format settings, CABAC : No
Format settings, ReFrames : 2 frames
Codec ID : V_MPEG4/ISO/AVC
Duration : 43mn 11s
Bit rate : 3 973 Kbps
Width : 1 280 pixels
Height : 720 pixels
Display aspect ratio : 16:9
Frame rate mode : Constant
Frame rate : 23.976 fps
Color space : YUV
Chroma subsampling : 4:2:0
Bit depth : 8 bits
Scan type : Progressive
Bits/(Pixel*Frame) : 0.180
Stream size : 1.20 GiB (86%)
Title : Однажды / Once Upon A Time / Сезон: 02 / Серия: 01
Language : English
Default : Yes
Forced : No
Color primaries : BT.709
Transfer characteristics : BT.709
Matrix coefficients : BT.709
Audio #1
ID : 2
Format : AC-3
Format/Info : Audio Coding 3
Mode extension : CM (complete main)
Format settings, Endianness : Big
Codec ID : A_AC3
Duration : 43mn 11s
Bit rate mode : Constant
Bit rate : 192 Kbps
Channel(s) : 2 channels
Channel positions : Front: L R
Sampling rate : 48.0 KHz
Bit depth : 16 bits
Compression mode : Lossy
Stream size : 59.3 MiB (4%)
Title : NevaFilm
Language : Russian
Default : Yes
Forced : No
Audio #2
ID : 3
Format : AC-3
Format/Info : Audio Coding 3
Mode extension : CM (complete main)
Format settings, Endianness : Big
Codec ID : A_AC3
Duration : 43mn 11s
Bit rate mode : Constant
Bit rate : 384 Kbps
Channel(s) : 6 channels
Channel positions : Front: L C R, Side: L R, LFE
Sampling rate : 48.0 KHz
Bit depth : 16 bits
Compression mode : Lossy
Stream size : 119 MiB (8%)
Title : English
Language : English
Default : No
Forced : No
Text
ID : 4
Format : UTF-8
Codec ID : S_TEXT/UTF8
Codec ID/Info : UTF-8 Plain Text
Title : Amega Death - LeksiSL
Language : Russian
Default : No
Forced : No

Скриншоты



Последний раз редактировалось: -=DoC(ToP)=-™ (2013-04-16 14:08), всего редактировалось 8 раз(а)
[Профиль]  [ЛС] 

-=DoC(ToP)=-™ ®

Стаж: 5 лет 1 месяц

Сообщений: 472

Откуда: СЕВАСТОПОЛЬ

Создавать темы 04-Янв-2013 13:45 (спустя 12 дней)

[Цитировать] 

Добавлена 5-ая серия!
[Профиль]  [ЛС] 

-=DoC(ToP)=-™ ®

Стаж: 5 лет 1 месяц

Сообщений: 472

Откуда: СЕВАСТОПОЛЬ

Создавать темы 05-Янв-2013 12:52 (спустя 23 часа)

[Цитировать] 

Добавлена 6-ая серия!
[Профиль]  [ЛС] 

Елена Гилберт

Стаж: 4 года 1 месяц

Сообщений: 1

Создавать темы 06-Янв-2013 20:23 (спустя 1 день 7 часов)

[Цитировать] 

Скажите пожалуйста когда будут остальные серии??
[Профиль]  [ЛС] 

-=DoC(ToP)=-™ ®

Стаж: 5 лет 1 месяц

Сообщений: 472

Откуда: СЕВАСТОПОЛЬ

Создавать темы 06-Янв-2013 20:59 (спустя 36 минут)

[Цитировать] 

Елена Гилберт
Раз в неделю будут выходить новые серии, в дубляже!
Каждый четверг - пятницу!
Уже есть серии с 1-9, но в разных (Одноголосых, любительских) переводах.
[Профиль]  [ЛС] 

-=DoC(ToP)=-™ ®

Стаж: 5 лет 1 месяц

Сообщений: 472

Откуда: СЕВАСТОПОЛЬ

Создавать темы 11-Янв-2013 10:36 (спустя 4 дня)

[Цитировать] 

Добавлена 7-ая серия!
[Профиль]  [ЛС] 

-=DoC(ToP)=-™ ®

Стаж: 5 лет 1 месяц

Сообщений: 472

Откуда: СЕВАСТОПОЛЬ

Создавать темы 19-Янв-2013 22:19 (спустя 8 дней)

[Цитировать] 

Добавлена 8-ая серия!
[Профиль]  [ЛС] 

-=DoC(ToP)=-™ ®

Стаж: 5 лет 1 месяц

Сообщений: 472

Откуда: СЕВАСТОПОЛЬ

Создавать темы 27-Мар-2013 18:27 (спустя 2 месяца 7 дней)

[Цитировать] 

+8(Обновлена)
+9
+10
+11
+12
+13
[Профиль]  [ЛС] 

frukt

Стаж: 7 лет

Сообщений: 30

Создавать темы 14-Апр-2013 12:51 (спустя 17 дней)

[Цитировать] 

а когда 22???
[Профиль]  [ЛС] 

-=DoC(ToP)=-™ ®

Стаж: 5 лет 1 месяц

Сообщений: 472

Откуда: СЕВАСТОПОЛЬ

Создавать темы 16-Апр-2013 14:09 (спустя 2 дня 1 час)

[Цитировать] 


+14
+15
+16
[Профиль]  [ЛС] 

shivait

Стаж: 6 лет 8 месяцев

Сообщений: 18

Создавать темы 01-Май-2013 22:21 (спустя 15 дней)

[Цитировать] 

Извините, а продолжение сезона будет? ac
[Профиль]  [ЛС] 
Похожие темы
Форум Тема Автор Размер
Наше кино Однажды (Ренат Давлетьяров) [2015, Комедия, приключения, WEB-DLRip][iTunes] Олег_SevStar 1,37 GB
Отечественные сериалы Однажды в Одессе (1-12 серия из 12) (Жизнь и приключения Мишки Япончика) (Сергей Гинзбург) [2011 г., криминал, мелодрама, DVDRip] Олег_SevStar 7,04 GB
Зарубежные сериалы Однажды в Сказке / Once Upon a Time / Сезон: 5 / Серии: 1-23 из 23 (Ральф Хемекер, Дин Уайт, Рон Андервуд) [2015, фэнтези, мелодрама, приключения,WEB-DLRip ] (Невафильм) Serega624 14,72 GB
Зарубежное кино Однажды в Шанхае / Once Upon a Time in Shanghai (Чхин Пхо Вон) (2014, криминал, боевые искуства, HDRip) anatolyi100 2,06 GB
Наше кино Однажды преступив черту (Максим Демченко) [2015, Мелодрама, детектив, HDTVRip] Олег_SevStar 1,37 GB
Показать сообщения:    
Ответить на тему

Текущее время: 08-Дек 05:04

Часовой пояс: UTC + 3



Вы не можете начинать темы
Вы не можете отвечать на сообщения
Вы не можете редактировать свои сообщения
Вы не можете удалять свои сообщения
Вы не можете голосовать в опросах
Вы не можете прикреплять файлы к сообщениям
Вы не можете скачивать файлы