Один дома: Дилогия / Home Alone: Dilogy (1990-1992) BDRip 1080p

Ответить на тему
Статистика раздачи [Обновить пиров]
Нет
 
   
 
 
Автор
Сообщение

-=DoC(ToP)=-™ ®

Стаж: 5 лет 1 месяц

Сообщений: 472

Откуда: СЕВАСТОПОЛЬ

Создавать темы 26-Дек-2012 19:39

[Цитировать] 

<center><img src=http://images.sevstar.net/images_tracker/1d643aa0d7063e10575559060d4bc909.png></center>

Один дома / Home Alone

Год выпуска: 1990
Страна: США
Жанр: комедия, приключения, семейный
Продолжительность: 103 мин. / 01:43
Перевод 1: Профессиональный (Многоголосый закадровый)
Перевод 2: Профессиональный (Многоголосый закадровый "ОРТ")
Режиссер: Крис Коламбус
Продюсер: Тарквин Готч, Джон Хьюз, Марк Левинсон
Сценарий: Джон Хьюз
Бюджет: $18 000 000
Премьера в мире: 10 ноября 1990
PG - Рекомендуется присутствие родителей
7.30 (153 631)

В ролях: Маколей Калкин, Джо Пеши, Дэниел Стерн, Джон Херд, Робертс Блоссом, Кэтрин О’Хара, Анджела Геталс, Девин Рэтрей, Джерри Бэммен, Хиллари Вульф, Джон Кэнди, Ларри Хэнкин, Майкл С. Маронна, Кристин Минтер, Дайана Кампеану, Джедидайя Коэн, Киран Калкин, Сента Моусес, Анна Слотки, Терри Снелл, Джефри Уайзмен, Вирджиния Смит, Мэтт Доэрти, Ральф Фуди, Майкл Гуидо, Рэй Толер, Билли Бёрд, Билл Эрвин, Джерри Бекер, Виктор Коул, Порша Рэдклифф, Бриттани Рэдклифф, Кларк Деверо, Дэн Чарльз Зукоски, Линн Мансбэч, Питер Сирагуса, Алан Уайлдер, Хоуп Дэвис, Кен Хадсон Кэмпбелл, Джим Ортлиб, Моника Деверо
Описание: Великолепная комедия о мальчике, которого родители оставили одного дома под Рождество. Маленький, но очень изобретательный мальчуган вступает в противоборство с ворами-домушниками. Забавные трюки, непрекращающееся действие и немного лирики. Фильм стал рекордсменом по кассовым сборам в год своего выхода и сделал чрезвычайно популярным исполнителя главной роли Маколея Калкина.
Качество: BDRip 1080p
Формат: MKV
Видео кодек: x264
Аудио кодек: AC3
Видео: AVC ([email protected]) 1920x1040 (1.85:1), 23.976 fps, 9770 kbps, 0,204 Bits/Pixel
Аудио: DD (AC-3) 5.1 ch, 384 kbps (Ru)
Аудио 2: DD (AC-3) 2.0 ch, 192 kbps (Ru)
Аудио 3: DD (AC-3) 5.1 ch, 448 kbps (En)
Субтитры: Русские, Английские

MI

General
Unique ID : 199932942706035428092100792726529513290 (0x9669AF22AA53C59DB7997C18132C174A)
Format : Matroska
Format version : Version 2
File size : 7.75 GiB
Duration : 1h 42mn
Overall bit rate : 10.8 Mbps
Movie name : Один дома (1990) BDRip (1080p)
Encoded date : UTC 2012-11-29 14:42:23
Writing application : mkvmerge v5.8.0 ('No Sleep / Pillow') built on Sep 2 2012 15:37:04
Writing library : libebml v1.2.3 + libmatroska v1.3.0
Video
ID : 1
Format : AVC
Format/Info : Advanced Video Codec
Format profile : [email protected]
Format settings, CABAC : Yes
Format settings, ReFrames : 4 frames
Codec ID : V_MPEG4/ISO/AVC
Duration : 1h 42mn
Bit rate : 9 770 Kbps
Width : 1 920 pixels
Height : 1 040 pixels
Display aspect ratio : 1.85:1
Frame rate mode : Constant
Frame rate : 23.976 fps
Color space : YUV
Chroma subsampling : 4:2:0
Bit depth : 8 bits
Scan type : Progressive
Bits/(Pixel*Frame) : 0.204
Stream size : 6.86 GiB (89%)
Title : Release by Alex260680
Writing library : x264 core 129 r2230 1cffe9f
Encoding settings : cabac=1 / ref=4 / deblock=1:0:0 / analyse=0x3:0x113 / me=umh / subme=10 / psy=1 / psy_rd=1.10:0.00 / mixed_ref=1 / me_range=32 / chroma_me=1 / trellis=2 / 8x8dct=1 / cqm=0 / deadzone=21,11 / fast_pskip=0 / chroma_qp_offset=-2 / threads=12 / lookahead_threads=2 / sliced_threads=0 / nr=0 / decimate=0 / interlaced=0 / bluray_compat=0 / constrained_intra=0 / bframes=5 / b_pyramid=2 / b_adapt=2 / b_bias=0 / direct=3 / weightb=1 / open_gop=0 / weightp=2 / keyint=240 / keyint_min=23 / scenecut=40 / intra_refresh=0 / rc=2pass / mbtree=0 / bitrate=9770 / ratetol=1.0 / qcomp=0.60 / qpmin=0 / qpmax=69 / qpstep=4 / cplxblur=20.0 / qblur=0.5 / ip_ratio=1.40 / pb_ratio=1.30 / aq=1:0.80
Language : English
Default : Yes
Forced : No
Audio #1
ID : 2
Format : AC-3
Format/Info : Audio Coding 3
Mode extension : CM (complete main)
Format settings, Endianness : Big
Codec ID : A_AC3
Duration : 1h 42mn
Bit rate mode : Constant
Bit rate : 384 Kbps
Channel(s) : 6 channels
Channel positions : Front: L C R, Side: L R, LFE
Sampling rate : 48.0 KHz
Bit depth : 16 bits
Compression mode : Lossy
Stream size : 283 MiB (4%)
Title : MVO
Language : Russian
Default : Yes
Forced : No
Audio #2
ID : 3
Format : AC-3
Format/Info : Audio Coding 3
Mode extension : CM (complete main)
Format settings, Endianness : Big
Codec ID : A_AC3
Duration : 1h 42mn
Bit rate mode : Constant
Bit rate : 192 Kbps
Channel(s) : 2 channels
Channel positions : Front: L R
Sampling rate : 48.0 KHz
Bit depth : 16 bits
Compression mode : Lossy
Stream size : 141 MiB (2%)
Title : MVO (ОРТ)
Language : Russian
Default : No
Forced : No
Audio #3
ID : 4
Format : AC-3
Format/Info : Audio Coding 3
Mode extension : CM (complete main)
Format settings, Endianness : Big
Codec ID : A_AC3
Duration : 1h 42mn
Bit rate mode : Constant
Bit rate : 448 Kbps
Channel(s) : 6 channels
Channel positions : Front: L C R, Side: L R, LFE
Sampling rate : 48.0 KHz
Bit depth : 16 bits
Compression mode : Lossy
Stream size : 330 MiB (4%)
Title : Original
Language : English
Default : No
Forced : No
Text #1
ID : 5
Format : UTF-8
Codec ID : S_TEXT/UTF8
Codec ID/Info : UTF-8 Plain Text
Language : Russian
Default : No
Forced : No
Text #2
ID : 6
Format : UTF-8
Codec ID : S_TEXT/UTF8
Codec ID/Info : UTF-8 Plain Text
Language : English
Default : No
Forced : No
Menu
00:00:00.000 : en:Chapter1
00:03:47.060 : en:Chapter2
00:05:46.679 : en:Chapter3
00:08:49.278 : en:Chapter4
00:11:28.729 : en:Chapter5
00:13:43.239 : en:Chapter6
00:19:27.457 : en:Chapter7
00:25:08.173 : en:Chapter8
00:31:16.040 : en:Chapter9
00:35:56.654 : en:Chapter10
00:41:09.550 : en:Chapter11
00:51:22.662 : en:Chapter12
00:57:38.580 : en:Chapter13
01:03:27.637 : en:Chapter14
01:06:33.656 : en:Chapter15
01:13:43.836 : en:Chapter16
01:15:13.217 : en:Chapter17
01:19:27.053 : en:Chapter18
01:22:51.341 : en:Chapter19
01:26:00.071 : en:Chapter20
01:28:45.069 : en:Chapter21
01:33:32.231 : en:Chapter22
01:37:58.289 : en:Chapter23
01:39:06.065 : en:Chapter24
01:42:54.126 : en:Chapter25

Один дома 2: Затерянный в Нью-Йорке / Home Alone 2: Lost in New York

Год выпуска: 1992
Страна: США
Жанр: Комедия, приключения, семейный, криминал
Продолжительность: 02:00:01
Перевод: Профессиональный (Дублированный)
Режиссер: Крис Коламбус
Продюсер: Тарквин Готч, Джон Хьюз, Марк Левинсон
Сценарий: Джон Хьюз
Бюджет: $18 000 000
Премьера в мире: 10 ноября 1990
PG - Рекомендуется присутствие родителей
7.30 (153 631)

В ролях: Маколей Калкин, Джо Пеши, Дэниел Стерн, Кэтрин О’Хара, Джон Херд, Девин Рэтрей, Хиллари Вульф, Морин Элизабет Шэй, Майкл С. Маронна, Джерри Бэммен
Описание: Самый маленький герой Америки устраивает большой переполох в Нью Йорке! Кевин МакКалистер вернулся! Но теперь он один не дома, а в Нью Йорке и у него достаточно денег и кредитных карточек, чтобы превратить Большое яблоко в собственную площадку для игр.Но, как всегда, Кевину не суждено быть долго одному, его старые приятели жулики Гарри и Марв сбежали из тюрьмы, куда они попали стараниями Кевина. И надо же им было попасть именно в тот город, где Кевин планировал поразвлечься. Новые западни и ловушки уже ждут горе бандитов...
Качество: BDRip 1080p
Формат: MKV
Видео кодек: x264
Аудио кодек: AC3
Видео: AVC ([email protected]) 1920x1040 (1.85:1), 23.976 fps, 8358 kbps, 0,175 Bits/Pixel
Аудио: DD (AC-3) 5.1 ch, 448 kbps (Ru)
Аудио 2: DD (AC-3) 5.1 ch, 448 kbps (En)
Субтитры: Русские, Английские

MI

General
Unique ID : 199218184587317532767712782749458457411 (0x95E006D6E16F741F9FE9CDD1D59B6343)
Format : Matroska
Format version : Version 2
File size : 7.75 GiB
Duration : 2h 0mn
Overall bit rate : 9 249 Kbps
Movie name : Один дома 2 (1992) BDRip (1080p)
Encoded date : UTC 2012-12-01 10:16:54
Writing application : mkvmerge v5.8.0 ('No Sleep / Pillow') built on Sep 2 2012 15:37:04
Writing library : libebml v1.2.3 + libmatroska v1.3.0
Video
ID : 1
Format : AVC
Format/Info : Advanced Video Codec
Format profile : [email protected]
Format settings, CABAC : Yes
Format settings, ReFrames : 4 frames
Codec ID : V_MPEG4/ISO/AVC
Duration : 2h 0mn
Bit rate : 8 358 Kbps
Width : 1 920 pixels
Height : 1 040 pixels
Display aspect ratio : 1.85:1
Frame rate mode : Constant
Frame rate : 23.976 fps
Color space : YUV
Chroma subsampling : 4:2:0
Bit depth : 8 bits
Scan type : Progressive
Bits/(Pixel*Frame) : 0.175
Stream size : 6.85 GiB (88%)
Title : Release by Alex260680
Writing library : x264 core 129 r2230 1cffe9f
Encoding settings : cabac=1 / ref=4 / deblock=1:-3:-3 / analyse=0x3:0x113 / me=umh / subme=10 / psy=1 / psy_rd=1.00:0.10 / mixed_ref=1 / me_range=32 / chroma_me=1 / trellis=2 / 8x8dct=1 / cqm=0 / deadzone=21,11 / fast_pskip=0 / chroma_qp_offset=-3 / threads=12 / lookahead_threads=2 / sliced_threads=0 / nr=0 / decimate=0 / interlaced=0 / bluray_compat=0 / constrained_intra=0 / bframes=5 / b_pyramid=2 / b_adapt=2 / b_bias=0 / direct=3 / weightb=1 / open_gop=0 / weightp=2 / keyint=240 / keyint_min=23 / scenecut=40 / intra_refresh=0 / rc=2pass / mbtree=0 / bitrate=8358 / ratetol=1.0 / qcomp=0.60 / qpmin=0 / qpmax=69 / qpstep=4 / cplxblur=20.0 / qblur=0.5 / ip_ratio=1.40 / pb_ratio=1.30 / aq=1:0.70
Language : English
Default : Yes
Forced : No
Audio #1
ID : 2
Format : AC-3
Format/Info : Audio Coding 3
Mode extension : CM (complete main)
Format settings, Endianness : Big
Codec ID : A_AC3
Duration : 2h 0mn
Bit rate mode : Constant
Bit rate : 448 Kbps
Channel(s) : 6 channels
Channel positions : Front: L C R, Side: L R, LFE
Sampling rate : 48.0 KHz
Bit depth : 16 bits
Compression mode : Lossy
Stream size : 385 MiB (5%)
Title : DUB
Language : Russian
Default : Yes
Forced : No
Audio #2
ID : 3
Format : AC-3
Format/Info : Audio Coding 3
Mode extension : CM (complete main)
Format settings, Endianness : Big
Codec ID : A_AC3
Duration : 2h 0mn
Bit rate mode : Constant
Bit rate : 448 Kbps
Channel(s) : 6 channels
Channel positions : Front: L C R, Side: L R, LFE
Sampling rate : 48.0 KHz
Bit depth : 16 bits
Compression mode : Lossy
Stream size : 385 MiB (5%)
Title : Original
Language : English
Default : No
Forced : No
Text #1
ID : 4
Format : UTF-8
Codec ID : S_TEXT/UTF8
Codec ID/Info : UTF-8 Plain Text
Language : Russian
Default : No
Forced : No
Text #2
ID : 5
Format : UTF-8
Codec ID : S_TEXT/UTF8
Codec ID/Info : UTF-8 Plain Text
Language : English
Default : No
Forced : No
Menu
00:00:00.000 : en:Chapter1
00:02:17.846 : en:Chapter2
00:05:22.613 : en:Chapter3
00:10:25.916 : en:Chapter4
00:16:31.740 : en:Chapter5
00:22:32.434 : en:Chapter6
00:26:09.609 : en:Chapter7
00:30:49.347 : en:Chapter8
00:35:33.506 : en:Chapter9
00:40:43.941 : en:Chapter10
00:43:22.266 : en:Chapter11
00:50:10.215 : en:Chapter12
00:53:56.524 : en:Chapter13
00:56:57.622 : en:Chapter14
01:00:23.453 : en:Chapter15
01:04:19.522 : en:Chapter16
01:08:01.952 : en:Chapter17
01:15:01.663 : en:Chapter18
01:18:51.351 : en:Chapter19
01:23:02.102 : en:Chapter20
01:25:47.767 : en:Chapter21
01:28:27.885 : en:Chapter22
01:31:29.734 : en:Chapter23
01:35:45.448 : en:Chapter24
01:37:20.501 : en:Chapter25
01:38:55.220 : en:Chapter26
01:42:29.685 : en:Chapter27
01:46:56.493 : en:Chapter28
01:55:49.150 : en:Chapter29
02:00:01.152 : en:Chapter30
[Профиль]  [ЛС] 

nAyK

Стаж: 8 лет

Сообщений: 21

Откуда: Город-Герой СЕВАСТОПОЛЬ

Создавать темы 26-Дек-2012 21:28 (спустя 1 час 49 минут)

[Цитировать] 

почему не качается???
[Профиль]  [ЛС] 

-=DoC(ToP)=-™ ®

Стаж: 5 лет 1 месяц

Сообщений: 472

Откуда: СЕВАСТОПОЛЬ

Создавать темы 26-Дек-2012 21:30 (спустя 1 минута)

[Цитировать] 

nAyK
Не знаю. Я раздаю с большой скоростью.
[Профиль]  [ЛС] 

nAyK

Стаж: 8 лет

Сообщений: 21

Откуда: Город-Герой СЕВАСТОПОЛЬ

Создавать темы 26-Дек-2012 22:26 (спустя 56 минут)

[Цитировать] 

Ооо, вот теперь пошло:-) Спасибо!
[Профиль]  [ЛС] 

-=DoC(ToP)=-™ ®

Стаж: 5 лет 1 месяц

Сообщений: 472

Откуда: СЕВАСТОПОЛЬ

Создавать темы 26-Дек-2012 22:49 (спустя 22 минуты)

[Цитировать] 

nAyK
Не за что, рад, что качаете Image020
[Профиль]  [ЛС] 

AnKLaV

Стаж: 8 лет 7 месяцев

Сообщений: 492

Откуда: Из столичной пустоши

Создавать темы 26-Дек-2012 22:51 (спустя 1 минута)

[Цитировать] 

Как раз к новому году, отлично. Если еще будет тот перевод, который я думаю, то вообще замечательно
[Профиль]  [ЛС] 

-=DoC(ToP)=-™ ®

Стаж: 5 лет 1 месяц

Сообщений: 472

Откуда: СЕВАСТОПОЛЬ

Создавать темы 26-Дек-2012 22:54 (спустя 2 минуты)

[Цитировать] 

AnKLaV
Отпишешься потом, тот перевод или нет Image011
[Профиль]  [ЛС] 

nAyK

Стаж: 8 лет

Сообщений: 21

Откуда: Город-Герой СЕВАСТОПОЛЬ

Создавать темы 26-Дек-2012 23:35 (спустя 41 минута)

[Цитировать] 

AnKLaV
Отпишешься потом, тот перевод или нет Image011
там две дорожки, выбирай любой)))
[Профиль]  [ЛС] 

den_cat

Стаж: 6 лет 8 месяцев

Сообщений: 151

Откуда: Севастополь

Создавать темы 27-Дек-2012 11:34 (спустя 11 часов)

[Цитировать] 

-=DoC(ToP)=-, спасибо за раздачу ay
любимый фильм детства, да ещё и в блюрике-супер
[Профиль]  [ЛС] 

-=DoC(ToP)=-™ ®

Стаж: 5 лет 1 месяц

Сообщений: 472

Откуда: СЕВАСТОПОЛЬ

Создавать темы 27-Дек-2012 11:53 (спустя 18 минут)

[Цитировать] 

den_cat
Image020
Рад, что нравится Image011
[Профиль]  [ЛС] 
Показать сообщения:    
Ответить на тему

Текущее время: 04-Дек 13:09

Часовой пояс: UTC + 3



Вы не можете начинать темы
Вы не можете отвечать на сообщения
Вы не можете редактировать свои сообщения
Вы не можете удалять свои сообщения
Вы не можете голосовать в опросах
Вы не можете прикреплять файлы к сообщениям
Вы не можете скачивать файлы