Хэнкок / Hancock (2008) BDRip-AVC 720p | Расширенная версия / Unrated version

Ответить на тему
Статистика раздачи [Обновить пиров]
Нет
 
   
 
 
Автор
Сообщение

-=DoC(ToP)=-™ ®

Стаж: 5 лет 1 месяц

Сообщений: 472

Откуда: СЕВАСТОПОЛЬ

Создавать темы 11-Янв-2013 23:25

[Цитировать] 

Хэнкок [Расширенная версия] / Hancock [Unrated version]
Год выпуска: 2008
Страна: США
Жанр: фантастика, боевик, драма, комедия
Продолжительность: 88 мин. / 01:28
Перевод: Дублированный + Оригинал (Английский) + Украинский (Дублированный) + Авторский (одноголосый закадровый) Андрей Гаврилов + Авторский (Одноголосый закадровый) Юрий Живов
Режиссер: Питер Берг
Продюсер: Акива Голдсман, Джеймс Ласситер, Майкл Манн
Сценарий: Винсент Нго, Винс Джиллигэн
Бюджет: $150 000 000
Премьера в мире: 16 июня 2008
PG-13 - Детям до 13 лет просмотр не желателен
6.50 (185 018)

В ролях: Уилл Смит, Шарлиз Терон, Джейсон Бейтман, Джей Хед, Эдди Марсан, Дэвид Мэтти, Метрикс Фиттен, Томас Леннон, Джонни Галэки, Хейли Норман
Описание: Есть герои, есть супергерои, и есть Хэнкок. Обладание сверхспособностями предполагает ответственность, все знают это — кроме него. За любую задачу он берётся с душой и лучшими намерениями, спасает жизни людей — ценой нечеловеческих разрушений и неисчислимого ущерба. В конце концов, терпение общественности подходит к концу: люди благодарны своему местному герою, но иногда не понимают, чем заслужили такое наказание.Хэнкок не из тех парней, кого волнует какое-то там общественное мнение, но однажды, после очередного подвига, спасая высокопоставленного пиарщика Рэя, он вдруг понимает, что в некотором смысле он может быть уязвим. С этим трудно смириться, особенно по мнению Мэри, жены Рэя, считающей, что Хэнкок попросту безнадежен.
Качество: BDRip 720р
Формат: MKV
Видео кодек: x264
Аудио кодек: AC3
Видео: 1280х532 (2,40:1), 5231 Kbps, 23,976 fps, 0.320 bit/pixel
Звук 1#: Дублированный AC3 Dolby Digital; 48 kHz, 6 ch, 448 kbps
Звук 2#: Английский AC3 Dolby Digital; 48 kHz, 6 ch, 448 kbps
Звук 3#: Украинский (Дублированный) AC3 Dolby Digital; 48 kHz, 6 ch, 448 kbps отдельно на narod.ru
Звук 4#: Авторский (А. Гаврилов) AC3 Dolby Digital; 48 kHz, 6 ch, 448 kbps отдельно на narod.ru
Звук 5#: Авторский (Ю. Живов) AC3 Dolby Digital; 48 kHz, 6 ch, 448 kbps отдельно на narod.ru
Субтитры: Русские, Английские, Украинские (Форсированные)-Отличие от театральной версии
-

Знаете ли вы, что...

* Первоначально фильм получил рейтинг «R» за то, что герой Смита употребляет алкоголь перед несовершеннолетним и летает в состоянии алкогольного опьянения.
* Фильм был показан на военной базе США на Ближнем Востоке за неделю до его премьеры в США - показ был бесплатным для всех американских военнослужащих на этой базе.
* Имя главного героя появилось в результате ошибки. В оригинале герой Уилла Смита объясняет, что когда он очнулся в больнице, медсестра сказала ему поставить «Джона Хэнкока» на одной из бумаг. Джон Хэнкок - американский государственный деятель, получивший большую известность за особо крупную подпись, поставленную под Декларацией независимости США. В последствии его имя стало нарицательным и значило «поставить подпись» или «расписаться». В российском официальном переводе была указана совсем другая причина появления этих инициалов.
* Сценарий фильма на протяжении десяти лет переходил от одной студии к другой, но никто не решался его воплотить в жизнь. В течение этого времени на главную прочили многих известных актеров, среди которых были Джордж Клуни, Бен Аффлек, Мэтт Дэймон и Леонардо ДиКаприо.
* После того как студия «Warner Bros.» отказалась от проекта, им занялась «Sony».
* В одной из сцен Мэри одета в футболку колледжа «Macalester College». Питер Берг закончил данный колледж.
* Кандидатура Дэйва Шапелла рассматривалась на главную роль.
* В некоторые кинотеатры копии фильма доставляла либо под названием «Hidden from Earth», либо «Speak Publicly».
* Изначально фильм должен был называться «Сегодня вечером он придет». Затем его переименовали в «Джона Хэнкока», а после сократили до «Хэнкок».
* Уилл Смит хотел, чтобы Айшвария Рай сыграла Мэри, но ей пришлось отказаться от роли из-за занятости на других проектах.
* Шарлиз Терон и Джейсон Бейтман сыграли супругов в третьем сезоне «Замедленного развития» (2003).
* Питер Берг, режиссер фильма, сыграл одного из врачей, которые борются за жизнь Мэри.
* Винсент Нго написал сценарий фильма в 1996 году. Почти десять лет спустя Винс Джиллигэн переписал сценарий, Джонатан Мостоу должен был поставить фильм, а премьера – состояться в 2007 году.
* Когда Джонатан Мостоу покинул проект в мае 2006 года, режиссером назначили Габриэле Муччино, который в то время занимался монтажом «В погоне за счастьем» (2006), где также сыграл Уилл Смит. «Хэнкок» должен был стать их следующим совместным проектом, однако Смит решил сначала сделать «Я – легенда» (2007). В октябре 2006 года Габриэле покинул проект из-за творческих разногласий.
* На пост режиссера также рассматривались Майкл Манн и Тони Скотт.
* В фильме содержится 525 кадров со спецэффектами.
* В сцене, где Рэй впервые объясняет свое видение PR-кампании, членов совета директоров сыграли различные голливудские продюсеры, среди которых Акива Голдсман и Майкл Манн.

MInfo

Общее
Уникальный идентификатор : 179246328815638142727926570229230054510 (0x86D996535010F97A8F8A94B48C71AC6E)
Полное имя : F:Hancock.[Unrated version].2008.x264.BDRip.720p.mkv
Формат : Matroska
Размер файла : 4,38 Гбайт
Продолжительность : 1 ч. 42 м.
Общий поток : 6127 Кбит/сек
Дата кодирования : UTC 2011-03-04 13:14:58
Программа кодирования : mkvmerge v4.4.0 ('Die Wiederkehr') сборка от Oct 31 2010 21:52:48
Библиотека кодирования : libebml v1.0.0 + libmatroska v1.0.0
Видео
Идентификатор : 1
Формат : AVC
Формат/Информация : Advanced Video Codec
Профиль формата : [email protected]
Параметр CABAC формата : Да
Параметр ReFrames формата : 8 кадры
Режим смешивания : Header stripping
Идентификатор кодека : V_MPEG4/ISO/AVC
Продолжительность : 1 ч. 42 м.
Битрейт : 5231 Кбит/сек
Ширина : 1280 пикс.
Высота : 532 пикс.
Соотношение сторон : 2,40:1
Частота кадров : 23,976 кадр/сек
Цветовое пространство : YUV
Подвыборка цветности : 4:2:0
Битовая глубина : 8 бит
Тип развёртки : Прогрессивная
Бит/(Пиксели*Кадры) : 0.320
Размер потока : 3,65 Гбайт (83%)
Библиотека кодирования : x264 core 114 r1900 60ef1f8
Настройки программы : cabac=1 / ref=9 / deblock=1:-3:-3 / analyse=0x3:0x133 / me=umh / subme=10 / psy=1 / psy_rd=1.00:0.00 / mixed_ref=1 / me_range=64 / chroma_me=1 / trellis=2 / 8x8dct=1 / cqm=0 / deadzone=21,11 / fast_pskip=0 / chroma_qp_offset=-2 / threads=6 / sliced_threads=0 / nr=0 / decimate=1 / interlaced=0 / constrained_intra=0 / bframes=3 / b_pyramid=1 / b_adapt=2 / b_bias=0 / direct=3 / weightb=1 / open_gop=2 / weightp=2 / keyint=250 / keyint_min=23 / scenecut=40 / intra_refresh=0 / rc_lookahead=60 / rc=2pass / mbtree=1 / bitrate=5231 / ratetol=1.0 / qcomp=0.60 / qpmin=0 / qpmax=30 / qpstep=1 / cplxblur=20.0 / qblur=0.5 / vbv_maxrate=50000 / vbv_bufsize=50000 / nal_hrd=none / ip_ratio=1.40 / aq=1:1.00
Язык : English
Аудио #1
Идентификатор : 2
Формат : AC-3
Формат/Информация : Audio Coding 3
Расширение режима : CM (complete main)
Режим смешивания : Header stripping
Идентификатор кодека : A_AC3
Продолжительность : 1 ч. 42 м.
Вид битрейта : Постоянный
Битрейт : 448 Кбит/сек
Канал(ы) : 6 канала(ов)
Расположение каналов : Front: L C R, Side: L R, LFE
Частота : 48,0 КГц
Битовая глубина : 16 бит
Метод сжатия : С потерями
Размер потока : 328 Мбайт (7%)
Заголовок : Русский (Дубляж)
Язык : Russian
Аудио #2
Идентификатор : 3
Формат : AC-3
Формат/Информация : Audio Coding 3
Расширение режима : CM (complete main)
Режим смешивания : Header stripping
Идентификатор кодека : A_AC3
Продолжительность : 1 ч. 42 м.
Вид битрейта : Постоянный
Битрейт : 448 Кбит/сек
Канал(ы) : 6 канала(ов)
Расположение каналов : Front: L C R, Side: L R, LFE
Частота : 48,0 КГц
Битовая глубина : 16 бит
Метод сжатия : С потерями
Размер потока : 328 Мбайт (7%)
Заголовок : Оригинал (Английский)
Язык : English
Текст #1
Идентификатор : 4
Формат : UTF-8
Идентификатор кодека : S_TEXT/UTF8
Идентификатор кодека/Информация : UTF-8 Plain Text
Язык : Russian
Текст #2
Идентификатор : 5
Формат : UTF-8
Идентификатор кодека : S_TEXT/UTF8
Идентификатор кодека/Информация : UTF-8 Plain Text
Язык : English
Текст #3
Идентификатор : 6
Формат : UTF-8
Идентификатор кодека : S_TEXT/UTF8
Идентификатор кодека/Информация : UTF-8 Plain Text
Заголовок : Форсированные
Язык : Ukrainian

[Профиль]  [ЛС] 
Показать сообщения:    
Ответить на тему

Текущее время: 04-Дек 15:17

Часовой пояс: UTC + 3



Вы не можете начинать темы
Вы не можете отвечать на сообщения
Вы не можете редактировать свои сообщения
Вы не можете удалять свои сообщения
Вы не можете голосовать в опросах
Вы не можете прикреплять файлы к сообщениям
Вы не можете скачивать файлы