Вероника. Потерянное счастье (Мирослав Малич) [2012 г., криминал, мелодрама, HDTV 720p]

Ответить на тему
Статистика раздачи [Обновить пиров]
Нет
 
   
 
 
Автор
Сообщение

Clieft ®

Стаж: 8 лет 3 месяца

Сообщений: 1639

Откуда: руки растут! Репутация: порочная!

Создавать темы 21-Мар-2013 20:00

[Цитировать] 

Вероника. Потерянное счастье- -
Год выпуска: 2012
Страна: Россия, "Кинокомпания Русское"
Жанр: криминал, мелодрама
Продолжительность: 16 x ~00:43:00
Перевод: Не требуется-Режиссер: Мирослав Малич
Продюсер: Ирина Смирнова, Дмитрий Бейнарович, Дмитрий Д. Зайцев
Сценарий: Наташа Павловская, Татьяна Палей, Ника Безрукавая-Премьера в мире: 6 ноября 2012-Кинопоиск: 6.730 (115)-В ролях: Наталья Бардо, Александр Дьяченко, Сергей Жигунов, Мария Машкова, Ольга Волкова, Владимир Носик, Виталий Альшанский, Анатолий Журавлев, Анатолий Лобоцкий, Митя Лабуш, Амаду Мамадаков, Ирина Ефремова- -Вероника Серова — дочь талантливого ученого и первая красавица небольшого провинциального городка Зеленогорска. Много лет девушка росла без печали и забот, соседские мальчишки наперебой сражались за ее внимание и любовь, и все прочили гордой красавице счастливое будущее. Но трагическое событие переворачивает судьбу Вероники. Внезапно она остается один на один с суровой взрослой жизнью. В паутине интриг, обмана и предательства ей придется научиться справляться с трудностями, переживать потери и бороться за себя и свою любовь…- -Качество: HDTV
Формат: MKV
Видео кодек: H.26x
Аудио кодек: AC3
Видео: 1280 х 720 (16:9), 25,000 кадр/сек, ~ 3850 Кбит/сек
Аудио: AC3, 2 ch, 192 Кбит/с 48000Hz
Релиз группы: -

MediaInfo

Общее
Уникальный идентификатор : 171056533926377694126696648833049991207 (0x80B04A432772DC7796002A1AA51A9827)
Полное имя : E:\Downloads\55\Вероника. Потерянное счастье HDTVRip 720p\Veronica.Poteryannoe.schaste.(01.seriya.iz.16).2012.HDTVRip.(720p).mkv
Формат : Matroska
Размер файла : 1,28 Гбайт
Продолжительность : 45 м.
Общий поток : 4039 Кбит/сек
Дата кодирования : UTC 2013-03-11 17:19:41
Программа кодирования : mkvmerge v4.9.1 ('Ich will') сборка от Jul 11 2011 23:53:15
Библиотека кодирования : libebml v1.2.1 + libmatroska v1.1.1
Видео
Идентификатор : 1
Формат : AVC
Формат/Информация : Advanced Video Codec
Профиль формата : [email protected]
Параметр CABAC формата : Да
Параметр ReFrames формата : 5 кадров
Идентификатор кодека : V_MPEG4/ISO/AVC
Продолжительность : 45 м.
Битрейт : 3850 Кбит/сек
Ширина : 1280 пикс.
Высота : 720 пикс.
Соотношение сторон : 16:9
Частота кадров : 25,000 кадр/сек
Цветовое пространство : YUV
Подвыборка цветности : 4:2:0
Битовая глубина : 8 бит
Тип развёртки : Прогрессивная
Бит/(Пиксели*Кадры) : 0.167
Размер потока : 1,19 Гбайт (93%)
Библиотека кодирования : x264 core 116 r2044 392e762
Настройки программы : cabac=1 / ref=5 / deblock=1:-1:-1 / analyse=0x3:0x113 / me=umh / subme=10 / psy=1 / psy_rd=0.00:0.10 / mixed_ref=1 / me_range=32 / chroma_me=1 / trellis=2 / 8x8dct=1 / cqm=0 / deadzone=21,11 / fast_pskip=0 / chroma_qp_offset=-1 / threads=12 / sliced_threads=0 / nr=0 / decimate=1 / interlaced=0 / bluray_compat=0 / constrained_intra=0 / bframes=5 / b_pyramid=2 / b_adapt=1 / b_bias=0 / direct=1 / weightb=1 / open_gop=0 / weightp=2 / keyint=250 / keyint_min=25 / scenecut=40 / intra_refresh=0 / rc_lookahead=40 / rc=abr / mbtree=1 / bitrate=3850 / ratetol=1.0 / qcomp=0.60 / qpmin=0 / qpmax=69 / qpstep=4 / ip_ratio=1.40 / aq=1:1.00
Аудио
Идентификатор : 2
Формат : AC-3
Формат/Информация : Audio Coding 3
Расширение режима : CM (complete main)
Идентификатор кодека : A_AC3
Продолжительность : 45 м.
Вид битрейта : Постоянный
Битрейт : 192 Кбит/сек
Каналы : 2 канала
Расположение каналов : Front: L R
Частота : 48,0 КГц
Битовая глубина : 16 бит
Метод сжатия : С потерями
Размер потока : 62,1 Мбайт (5%)
-
[Профиль]  [ЛС] 
Показать сообщения:    
Ответить на тему

Текущее время: 07-Дек 17:26

Часовой пояс: UTC + 3



Вы не можете начинать темы
Вы не можете отвечать на сообщения
Вы не можете редактировать свои сообщения
Вы не можете удалять свои сообщения
Вы не можете голосовать в опросах
Вы не можете прикреплять файлы к сообщениям
Вы не можете скачивать файлы