Коварные горничные / Devious Maids (2013) WEB-DL [1080p] (Сезон 1, серии 01-13 из 13) (Baibako)

Ответить на тему
Статистика раздачи [Обновить пиров]
Нет
 
   
 
 
Автор
Сообщение

SHAMAN665 ®

Стаж: 7 лет 2 месяца

Сообщений: 627

Откуда: мой адрес не дом и не улица ...

Создавать темы 30-Сен-2013 19:20

[Цитировать] 

-Коварные горничные / Devious Maids (2013) WEB-DL [1080p] (Сезон 1, серии 01-13 из 13) (Baibako)- Год выпуска: 2013
Страна: США
Жанр: Драма, Комедия-Перевод: Многоголосый закадровый, профессиональный - BaibaKo -Режиссер: Роб Бэйли, Тауния Маккирнан, Джон Скотт, ...
Актеры: Грант Шоу, Мелинда Пейдж Хэмилтон, Сьюзэн Луччи, Ана Ортиз, Дрю Ван Экер, Дания Рамирез, Эди Ганем, Джуди Рейс,Брианна Браун, Мариана Клавено и др.-Описание фильма:
В центре сюжета - четыре амбициозные латиноамериканские горничные, работающие в домах богатых и знаменитых жителей Беверли-Хиллз. Их подруга найдена жестоко убитой. С собой в могилу она унесла общую шокирующую тайну. После этого им приходится хранить секрет, чего бы это ни стоило, продолжая работать на своих испорченных и красивых хозяев.-
Дата мировой премьеры:
23 июня 2013
Продолжительность: ~ 00:43:00 серия
Качество видео: WEB-DL 1080p
Формат: MKV-Видеокодек: MPEG-4 AVC/H.264
Битрейт видео: ~5045 Кбит/сек
Размер кадра: 1920x1080
Аудио 1: Русский, AC-3, 48.0 KHz, 6 ch, 384 kbps
Аудио 2: Английский, AC-3, 48.0 KHz, 6 ch, 384 kbps-

Список серий:

-01. Пилот (Pilot) - 23 июня 2013
02. Накрываем на стол (Setting The Table) - 30 июня
03. Стираем прошлое (Wiping Away the Past) - 7 июля
04. Стелим постель (Making Your Bed) - 14 июля
05. (Taking Out the Trash) - 2013
06. (Walking the Dog) - 2013
07. (Taking a Message) - 2013
08. (Minding the Baby) - 2013
09. (Scrambling the Eggs) - 2013
10. (Hanging the Drapes) - 2013
11. (Cleaning Out the Closet) - 2013
12. (Totally Clean, Part 1) - 2013
13. (Totally Clean Part 2) - 2013
-

MediaInfo:

-General
Unique ID : 200836066900637369652975130448263741981 (0x97179E98948A10D38CCAD0B3DEBD821D)
Complete name : E:\Раздачи\Devious.Maids.s01.(2013).WEB-DL.1080p.BaibaKo\Devious.Maids.s01e01.HD1080p.WEB-DL.Rus-Eng.BaibaKo.tv.mkv
Format : Matroska
Format version : Version 4 / Version 2
File size : 1.80 GiB
Duration : 43mn 20s
Overall bit rate : 5 931 Kbps
Movie name : BaibaKo.tv presents - Коварные горничные 1х01 Пилот
Encoded date : UTC 2010-02-22 21:41:31
Writing application : mkvmerge v5.9.0 ('On The Loose') built on Dec 9 2012 15:37:01
Writing library : libebml v1.3.0 + libmatroska v1.4.0
Video
ID : 1
Format : AVC
Format/Info : Advanced Video Codec
Format profile : [email protected]
Format settings, CABAC : Yes
Format settings, ReFrames : 4 frames
Codec ID : V_MPEG4/ISO/AVC
Duration : 43mn 20s
Bit rate : 5 045 Kbps
Width : 1 920 pixels
Height : 1 080 pixels
Display aspect ratio : 16:9
Frame rate mode : Constant
Frame rate : 23.976 fps
Color space : YUV
Chroma subsampling : 4:2:0
Bit depth : 8 bits
Scan type : Progressive
Bits/(Pixel*Frame) : 0.101
Stream size : 1.53 GiB (85%)
Language : English
Default : Yes
Forced : No
Color primaries : BT.709
Transfer characteristics : BT.709
Matrix coefficients : BT.709
Audio #1
ID : 2
Format : AC-3
Format/Info : Audio Coding 3
Mode extension : CM (complete main)
Format settings, Endianness : Big
Codec ID : A_AC3
Duration : 43mn 20s
Bit rate mode : Constant
Bit rate : 384 Kbps
Channel(s) : 6 channels
Channel positions : Front: L C R, Side: L R, LFE
Sampling rate : 48.0 KHz
Bit depth : 16 bits
Compression mode : Lossy
Stream size : 119 MiB (6%)
Title : Rus BaibaKo.tv DD5.1
Language : Russian
Default : Yes
Forced : No
Audio #2
ID : 3
Format : AC-3
Format/Info : Audio Coding 3
Mode extension : CM (complete main)
Format settings, Endianness : Big
Codec ID : A_AC3
Duration : 43mn 20s
Bit rate mode : Constant
Bit rate : 384 Kbps
Channel(s) : 6 channels
Channel positions : Front: L C R, Side: L R, LFE
Sampling rate : 48.0 KHz
Bit depth : 16 bits
Compression mode : Lossy
Stream size : 119 MiB (6%)
Title : Eng DD5.1
Language : English
Default : No
Forced : No
-
--:!: ЗАЛИТО НА ЗАКАЗ :!:на раздаче до первых трёх скачавших-
[Профиль]  [ЛС] 

SHAMAN665 ®

Стаж: 7 лет 2 месяца

Сообщений: 627

Откуда: мой адрес не дом и не улица ...

Создавать темы 30-Сен-2013 20:07 (спустя 46 минут)

[Цитировать] 

Спасибо за Золотишко.
[Профиль]  [ЛС] 

Белый_ветер

Стаж: 8 лет 4 месяца

Сообщений: 703

Откуда: из соседнего куста

Создавать темы 30-Сен-2013 22:59 (спустя 2 часа 52 минуты)

[Цитировать] 

Интересный сериал, между прочим. На одном дыхании смотрела.
[Профиль]  [ЛС] 

Solitude

Стаж: 8 лет

Сообщений: 52

Откуда: Великий русский город Севастополь

Создавать темы 01-Окт-2013 12:48 (спустя 13 часов)

[Цитировать] 

они как будто все на одно лицо Image001и похожи на отчаянных домохозяек
[Профиль]  [ЛС] 

Sneginka

Стаж: 8 лет 7 месяцев

Сообщений: 16

Создавать темы 18-Окт-2013 17:35 (спустя 17 дней)

[Цитировать] 

Спасибо большое. Действительно, похож на домохозяек. И поэтому понравился Image020)
[Профиль]  [ЛС] 
Показать сообщения:    
Ответить на тему

Текущее время: 08-Дек 01:06

Часовой пояс: UTC + 3



Вы не можете начинать темы
Вы не можете отвечать на сообщения
Вы не можете редактировать свои сообщения
Вы не можете удалять свои сообщения
Вы не можете голосовать в опросах
Вы не можете прикреплять файлы к сообщениям
Вы не можете скачивать файлы