Родина / Homeland (2013) [сезон 3, серии 1-9 из 12] [LostFilm] (Говард Гордон, Алекс Ганза, Гидеон Рэфф) [2013 г., Драма, Детектив, Триллер, WEB-DLRip 720p]

Ответить на тему
Статистика раздачи [Обновить пиров]
Нет
 
   
 
 
Автор
Сообщение

makash ®

Стаж: 6 лет 7 месяцев

Сообщений: 11

Создавать темы 12-Окт-2013 23:47

[Цитировать] 

Родина / Homeland (2013) WEB-DLRip 720p [сезон 3, серии 1-9 из 12] [LostFilm]
Год выпуска: 2013
Страна: США
Жанр: Драма, Детектив, Триллер
Продолжительность: ~00:58:14 серия
Перевод: Профессиональный (многоголосый, закадровый)
Режиссер: Говард Гордон, Алекс Ганза, Гидеон Рэфф
В ролях: Диего Клаттенхофф, Мори Стерлинг, Морена Баккарин, Клэр Дэйнс, Дамиан Льюис, Навид Негабан, Мэнди Пэтинкин, Храч Титизиан, Омид Абтахи, Амир Арисон и др.
Описание: Николас Броди (Дамиан Льюис) — сержант морской пехоты, который возвращается домой после восьми лет плена в Ираке, а Кэрри Мэтисон (Клэр Дэйнс), офицер ЦРУ, которая подозревает, что Броди ведет двойную игру и планирует теракт.
Качество: WEB-DLRip 720p
Формат: MKV
Видео кодек: AVC
Аудио кодек: AC-3
Видео: 1280x720 (16:9), ~4041 kb/s, 23.976 fps
Аудио: (AC-3, 48,0 kHz, 2 ch, 384 kb/s) - многоголосый закадровый

Техническая информация

Видео
Идентификатор : 1
Формат : AVC
Формат/Информация : Advanced Video Codec
Профиль формата : [email protected]
Параметр CABAC формата : Да
Параметр ReFrames формата : 4 кадра
Идентификатор кодека : V_MPEG4/ISO/AVC
Продолжительность : 58 м.
Битрейт : 4041 Кбит/сек
Ширина : 1280 пикселей
Высота : 720 пикселей
Соотношение сторон : 16:9
Режим частоты кадров : Постоянный
Частота кадров : 23,976 кадра/сек
Цветовое пространство : YUV
Субдискретизация насыщенности : 4:2:0
Битовая глубина : 8 бит
Тип развёртки : Прогрессивная
Бит/(Пиксели*Кадры) : 0.183
Размер потока : 1,61 Гбайт (82%)
Библиотека кодирования : x264 core 112 r1834 a51816a
Настройки программы : cabac=1 / ref=1 / deblock=1:0:0 / analyse=0x3:0x113 / me=hex / subme=7 / psy=1 / psy_rd=1.00:0.00 / mixed_ref=0 / me_range=16 / chroma_me=1 / trellis=1 / 8x8dct=1 / cqm=0 / deadzone=21,11 / fast_pskip=1 / chroma_qp_offset=-2 / threads=6 / sliced_threads=0 / nr=0 / decimate=1 / interlaced=0 / constrained_intra=0 / bframes=3 / b_pyramid=2 / b_adapt=1 / b_bias=0 / direct=1 / weightb=1 / open_gop=0 / weightp=2 / keyint=250 / keyint_min=25 / scenecut=40 / intra_refresh=0 / rc_lookahead=40 / rc=2pass / mbtree=1 / bitrate=4041 / ratetol=1.0 / qcomp=0.60 / qpmin=0 / qpmax=51 / qpstep=4 / cplxblur=20.0 / qblur=0.5 / ip_ratio=1.40 / aq=1:1.00
Default : Да
Forced : Нет
Аудио #1
Идентификатор : 2
Формат : AC-3
Формат/Информация : Audio Coding 3
Расширение режима : CM (complete main)
Параметр Endianness формата : Big
Идентификатор кодека : A_AC3
Продолжительность : 58 м.
Вид битрейта : Постоянный
Битрейт : 384 Кбит/сек
Каналы : 2 канала
Расположение каналов : Front: L R
Частота : 48,0 КГц
Битовая глубина : 16 бит
Метод сжатия : С потерями
Размер потока : 160 Мбайт (8%)
Default : Да
Forced : Нет
Аудио #2
Идентификатор : 3
Формат : AC-3
Формат/Информация : Audio Coding 3
Расширение режима : CM (complete main)
Параметр Endianness формата : Big
Идентификатор кодека : A_AC3
Продолжительность : 58 м.
Вид битрейта : Постоянный
Битрейт : 384 Кбит/сек
Каналы : 2 канала
Расположение каналов : Front: L R
Частота : 48,0 КГц
Битовая глубина : 16 бит
Метод сжатия : С потерями
Размер потока : 160 Мбайт (8%)
Default : Нет
Forced : Нет

Скриншоты

; ; ;


Последний раз редактировалось: makash (2013-11-27 12:14), всего редактировалось 12 раз(а)
[Профиль]  [ЛС] 

Лана6784

Стаж: 5 лет 9 месяцев

Сообщений: 31

Создавать темы 13-Окт-2013 17:12 (спустя 17 часов)

[Цитировать] 

СПАСИБО!!!
[Профиль]  [ЛС] 

makash ®

Стаж: 6 лет 7 месяцев

Сообщений: 11

Создавать темы 15-Окт-2013 19:50 (спустя 2 дня 2 часа)

[Цитировать] 

+3
[Профиль]  [ЛС] 

makash ®

Стаж: 6 лет 7 месяцев

Сообщений: 11

Создавать темы 23-Окт-2013 12:09 (спустя 7 дней)

[Цитировать] 

+4
[Профиль]  [ЛС] 

Blondy

Стаж: 8 лет 7 месяцев

Сообщений: 614

Откуда: из сумрака...

Создавать темы 23-Окт-2013 12:13 (спустя 4 минуты)

[Цитировать] 

makash, почему подробно не расписаны технические данные? Распишите.
[Профиль]  [ЛС] 

makash ®

Стаж: 6 лет 7 месяцев

Сообщений: 11

Создавать темы 23-Окт-2013 12:31 (спустя 17 минут)

[Цитировать] 

Достаточно подробно? Image020
[Профиль]  [ЛС] 

Blondy

Стаж: 8 лет 7 месяцев

Сообщений: 614

Откуда: из сумрака...

Создавать темы 23-Окт-2013 14:05 (спустя 1 час 34 минуты)

[Цитировать] 

Достаточно было написать в строке видео и аудио разрешение кадра, битрейт, частоту кадров и тд. Вот так:
Видео: 720х400, 1 244 Kbps, 23.976 fps
Аудио: 48.0 KHz, 192 Kbps, 2 channels.
И аудио кодек у вас MP3.
Исправила сама,с следующий раз делайте так.
[Профиль]  [ЛС] 

makash ®

Стаж: 6 лет 7 месяцев

Сообщений: 11

Создавать темы 23-Окт-2013 14:12 (спустя 6 минут)

[Цитировать] 

Понял, спасибо за разъяснение!
[Профиль]  [ЛС] 

Last13

Стаж: 8 лет 7 месяцев

Сообщений: 175

Создавать темы 23-Окт-2013 17:53 (спустя 3 часа)

[Цитировать] 

продлен на 4 сезон
[Профиль]  [ЛС] 

makash ®

Стаж: 6 лет 7 месяцев

Сообщений: 11

Создавать темы 30-Окт-2013 17:19 (спустя 6 дней)

[Цитировать] 

+5
[Профиль]  [ЛС] 

makash ®

Стаж: 6 лет 7 месяцев

Сообщений: 11

Создавать темы 09-Ноя-2013 11:09 (спустя 9 дней)

[Цитировать] 

+6 и качество получше!
[Профиль]  [ЛС] 

makash ®

Стаж: 6 лет 7 месяцев

Сообщений: 11

Создавать темы 15-Ноя-2013 19:45 (спустя 6 дней)

[Цитировать] 

+7
[Профиль]  [ЛС] 

серенький

Стаж: 7 лет 6 месяцев

Сообщений: 37

Создавать темы 16-Ноя-2013 15:13 (спустя 19 часов)

[Цитировать] 

спасибо!!!
[Профиль]  [ЛС] 

makash ®

Стаж: 6 лет 7 месяцев

Сообщений: 11

Создавать темы 16-Ноя-2013 15:46 (спустя 33 минуты)

[Цитировать] 

не за что!!!
[Профиль]  [ЛС] 

makash ®

Стаж: 6 лет 7 месяцев

Сообщений: 11

Создавать темы 20-Ноя-2013 01:05 (спустя 3 дня)

[Цитировать] 

+8
[Профиль]  [ЛС] 

makash ®

Стаж: 6 лет 7 месяцев

Сообщений: 11

Создавать темы 27-Ноя-2013 12:15 (спустя 7 дней)

[Цитировать] 

+9
[Профиль]  [ЛС] 
Похожие темы
Форум Тема Автор Размер
Наше кино Родина (2015) WEB-DLRip | iTunes Олег_SevStar 1,46 GB
Отечественные сериалы Родина (Серии: 1-12 из 12) (Павел Лунгин, Тамаш Т. Тот) [2015, Мелодрама, SATRip] Serega624 8,29 GB
HD Родина / Сезон: 1 / Серии: 1-12 из 12 (Павел Лунгин, Тамаш Т. Тот) [2015, детектив, HDTVRip (720p)] Олег_SevStar 22,16 GB
Зарубежные сериалы Родина / Чужой среди своих / Homeland / Сезон: 5 / Серии: 1-12 из 12 (Майкл Куэста) [2015, Триллер, драма, детектив, WEB-DLRip] MVO (LostFilm) Serega624 7,61 GB
HD С чего начинается Родина / Сезон: 1 / Серии: 1-8 из 8 (Рауф Кубаев) [2014, детектив, HDTVRip(720p)] Олег_SevStar 12,45 GB
Показать сообщения:    
Ответить на тему

Текущее время: 11-Дек 01:16

Часовой пояс: UTC + 3



Вы не можете начинать темы
Вы не можете отвечать на сообщения
Вы не можете редактировать свои сообщения
Вы не можете удалять свои сообщения
Вы не можете голосовать в опросах
Вы не можете прикреплять файлы к сообщениям
Вы не можете скачивать файлы