Безжалостные люди / Ruthless People (Джим Абрахамс /Jim Abrahams/, Джерри Цукер /Jerry Zucker/, Дэвид Цукер /David Zucker /) [1986, США, Комедия, DVDRip] (AVO : Алексей Михалев (поздний)) (AVO : Алексей Михалев (ранний)) (AVO : Алексей Михалев (самый

Ответить на тему
Статистика раздачи [Обновить пиров]
Нет
 
   
 
 
Автор
Сообщение

anatolyi100 ®

Стаж: 6 лет 2 месяца

Сообщений: 826

Откуда: г.герой Севастополь

Создавать темы 11-Авг-2014 18:49

[Цитировать] 

Безжалостные люди / Ruthless People
Страна: США
Жанр: Комедия
Год выпуска: 1986
Продолжительность: 01:33:25
Перевод: Авторский (одноголосый закадровый) Доп. инфо о переводе Алексей Михалев (поздний)
Перевод 2: Авторский (одноголосый закадровый) Доп. инфо о переводе 2 Алексей Михалев (ранний)
Перевод 3: Авторский (одноголосый закадровый) Доп. инфо о переводе 3 Алексей Михалев (самый ранний)
Перевод 4: Профессиональный (двухголосый закадровый)
Cубтитры: нет
Режиссер: Джим Абрахамс /Jim Abrahams/, Джерри Цукер /Jerry Zucker/, Дэвид Цукер /David Zucker /
В ролях: Дэнни ДеВито, Бетт Мидлер, Джадж Райнхолд, Хелен Слэйтер, Анита Моррис, Билл Пуллман, Уильям Дж. Шиллинг, Арт Эванс, Кларенс Фелдер, Дж. Э. Фримен, Гари Райли, Филлис Эпплгейт, Джанин Бисиньяно, Дж.П. Бамстед, Джон Катлер, Сьюзэн Мари Снайдер, Джим Дуган, Кристофер Дж. Кин, Генри Ногучи, Фрэнк Сиверо, Арнольд Ф. Тернер, Боб Цудикер, Луиза Уэйф, Джанет Ротблатт, Шарлотта Зукер, Арт Бонилла, Мие Хант, Рон Тэнк, Сюзэнн Снайдер, Бет Р. Джонсон, Ричард Уилсон, Твайла Литтлтон, Мэри Элизабет Томпсон, Сьюзен Бреслау, Уильям Винклер
Описание: Самой заветной мечтой Сэма Стоуна было избавиться от своей сварливой женушки. И вот его день настал: жену похитили с целью получить кругленькую сумму. Естественно, что у Сэма даже в мыслях нет расставаться со своими кровными в обмен на «любимую» супругу. Но он еще не подозревает, что его жена обладает способностью наладить дружеские отношения даже с бандитами.
Качество видео: DVDRip
Формат видео: AVI
Видео: XViD, 720x400, 16:9, 25.000, 1470 Кб/с
Аудио: АС-3, 2сн, 192 Кб/с
Аудио 2: АС-3, 2сн, 192 Кб/с
Аудио 3: АС-3, 2сн, 192 Кб/с
Аудио 4: АС-3, 2сн, 192 Кб/с

MediaInfo

Общее
Полное имя : F:\Текущие\Безжалостные люди - Ruthless People(1986)DVDRip.avi
Формат : AVI
Формат/Информация : Audio Video Interleave
Размер файла : 1,55 Гбайт
Продолжительность : 1 ч. 30 м.
Общий поток : 2459 Кбит/сек
Программа кодирования : VirtualDubMod 1.5.10.2 (build 2540/release)
Библиотека кодирования : VirtualDubMod build 2540/release
Видео
Идентификатор : 0
Формат : MPEG-4 Visual
Профиль формата : Advanced [email protected]
Параметр BVOP формата : 1
Параметр QPel формата : Нет
Параметр GMC формата : Без точки перехода
Параметр матрицы формата : Default (H.263)
Идентификатор кодека : XVID
Идентификатор кодека/Подсказка : XviD
Продолжительность : 1 ч. 30 м.
Битрейт : 1470 Кбит/сек
Ширина : 720 пикселей
Высота : 400 пикселей
Соотношение сторон : 16:9
Частота кадров : 25,000 кадров/сек
Цветовое пространство : YUV
Субдискретизация насыщенности : 4:2:0
Битовая глубина : 8 бит
Тип развёртки : Прогрессивная
Метод сжатия : С потерями
Бит/(Пиксели*Кадры) : 0.204
Размер потока : 948 Мбайт (60%)
Библиотека кодирования : XviD 1.2.0.dev47 (UTC 2006-11-01)
Аудио #1
Идентификатор : 1
Формат : AC-3
Формат/Информация : Audio Coding 3
Расширение режима : CM (complete main)
Параметр Endianness формата : Big
Идентификатор кодека : 2000
Продолжительность : 1 ч. 30 м.
Вид битрейта : Постоянный
Битрейт : 192 Кбит/сек
Каналы : 2 канала
Расположение каналов : Front: L R
Частота : 48,0 КГц
Битовая глубина : 16 бит
Метод сжатия : С потерями
Размер потока : 124 Мбайт (8%)
Выравнивание : Разделение по промежуткам
Продолжительность промежутка : 40 мс. (1,00 видеокадр)
Время предзагрузки промежутка : 500 мс.
Аудио #2
Идентификатор : 2
Формат : AC-3
Формат/Информация : Audio Coding 3
Расширение режима : CM (complete main)
Параметр Endianness формата : Big
Идентификатор кодека : 2000
Продолжительность : 1 ч. 30 м.
Вид битрейта : Постоянный
Битрейт : 192 Кбит/сек
Каналы : 2 канала
Расположение каналов : Front: L R
Частота : 48,0 КГц
Битовая глубина : 16 бит
Метод сжатия : С потерями
Размер потока : 124 Мбайт (8%)
Выравнивание : Разделение по промежуткам
Продолжительность промежутка : 40 мс. (1,00 видеокадр)
Время предзагрузки промежутка : 500 мс.
Аудио #3
Идентификатор : 3
Формат : AC-3
Формат/Информация : Audio Coding 3
Расширение режима : CM (complete main)
Параметр Endianness формата : Big
Идентификатор кодека : 2000
Продолжительность : 1 ч. 30 м.
Вид битрейта : Постоянный
Битрейт : 192 Кбит/сек
Каналы : 2 канала
Расположение каналов : Front: L R
Частота : 48,0 КГц
Битовая глубина : 16 бит
Метод сжатия : С потерями
Размер потока : 124 Мбайт (8%)
Выравнивание : Разделение по промежуткам
Продолжительность промежутка : 40 мс. (1,00 видеокадр)
Время предзагрузки промежутка : 500 мс.
Аудио #4
Идентификатор : 4
Формат : AC-3
Формат/Информация : Audio Coding 3
Расширение режима : CM (complete main)
Параметр Endianness формата : Big
Идентификатор кодека : 2000
Продолжительность : 1 ч. 30 м.
Вид битрейта : Постоянный
Битрейт : 192 Кбит/сек
Каналы : 2 канала
Расположение каналов : Front: L R
Частота : 48,0 КГц
Битовая глубина : 16 бит
Метод сжатия : С потерями
Размер потока : 124 Мбайт (8%)
Выравнивание : Разделение по промежуткам
Продолжительность промежутка : 40 мс. (1,00 видеокадр)
Время предзагрузки промежутка : 500 мс.
Аудио #5
Идентификатор : 5
Формат : AC-3
Формат/Информация : Audio Coding 3
Расширение режима : CM (complete main)
Параметр Endianness формата : Big
Идентификатор кодека : 2000
Продолжительность : 1 ч. 30 м.
Вид битрейта : Постоянный
Битрейт : 192 Кбит/сек
Каналы : 2 канала
Расположение каналов : Front: L R
Частота : 48,0 КГц
Битовая глубина : 16 бит
Метод сжатия : С потерями
Размер потока : 124 Мбайт (8%)
Выравнивание : Разделение по промежуткам
Продолжительность промежутка : 40 мс. (1,00 видеокадр)
Время предзагрузки промежутка : 500 мс.

Скриншот c названием фильма

Скриншоты





[Профиль]  [ЛС] 
Показать сообщения:    
Ответить на тему

Текущее время: 04-Дек 06:51

Часовой пояс: UTC + 3



Вы не можете начинать темы
Вы не можете отвечать на сообщения
Вы не можете редактировать свои сообщения
Вы не можете удалять свои сообщения
Вы не можете голосовать в опросах
Вы не можете прикреплять файлы к сообщениям
Вы не можете скачивать файлы