Французский шпион (Алексей Феоктистов) [2014, боевик, детектив, DVDRip]

Ответить на тему
Статистика раздачи [Обновить пиров]
Нет
 
   
 
 
Автор
Сообщение

Олег_SevStar ®

Стаж: 7 лет 8 месяцев

Сообщений: 2425

Откуда: из Союза...

Создавать темы 16-Авг-2014 21:35

[Цитировать] 

Французский шпион
Жанр: боевик, детектив
Год выпуска: 2014
Продолжительность: 01:34:23
Режиссёр: Алексей Феоктистов
В ролях: Оскар Кучера, Анна Чурина, Дмитрий Супонин, Евгений Редько, Сергей Стёпин, Фаридуншо Рахматуллоев, Валерий Новиков, Рустам Абдрашитов, Бесо Гатаев, Данила Якушев
Описание: 1990 год. Вывод советских войск из Чехословакии. Часть, в которой служил лейтенант Андрей Канаев, расформирована. В результате устроенной приятелем Андрея авантюры он оказывается во Франции, где поступает в "Иностранный легион". Здесь молодой лейтенант будет втянут в шпионскую деятельность против России и ему предстоит сделать серьезный нравственный выбор, умело лавируя между западными и российскими спецслужбами.

Качество видео: DVDRip
Формат видео: AVI
Видео: 1842 Кбит/с, 720x400
Аудио: AC3, 224 Кбит/с (2 ch)

MediaInfo

Общее
Полное имя : D:\Фильмы\Francuzkiy.Shpion.2014.O.DVDRip.1400MB.avi
Формат : AVI
Формат/Информация : Audio Video Interleave
Размер файла : 1,37 Гбайт
Продолжительность : 1 ч. 34 м.
Общий поток : 2076 Кбит/сек
Программа кодирования : VirtualDubMod 1.5.10.3 | www.virtualdub-fr.org || (build 2550/release)
Библиотека кодирования : VirtualDubMod build 2550/release
Видео
Идентификатор : 0
Формат : MPEG-4 Visual
Профиль формата : Advanced [email protected]
Параметр BVOP формата : 2
Параметр QPel формата : Нет
Параметр GMC формата : Без точки перехода
Параметр матрицы формата : Default (MPEG)
Идентификатор кодека : XVID
Идентификатор кодека/Подсказка : XviD
Продолжительность : 1 ч. 34 м.
Битрейт : 1842 Кбит/сек
Ширина : 720 пикселей
Высота : 400 пикселей
Соотношение сторон : 16:9
Частота кадров : 25,000 кадров/сек
Цветовое пространство : YUV
Субдискретизация насыщенности : 4:2:0
Битовая глубина : 8 бит
Тип развёртки : Прогрессивная
Метод сжатия : С потерями
Бит/(Пиксели*Кадры) : 0.256
Размер потока : 1,21 Гбайт (89%)
Библиотека кодирования : XviD 1.2.1 (UTC 2008-12-04)
Аудио
Идентификатор : 1
Формат : AC-3
Формат/Информация : Audio Coding 3
Расширение режима : CM (complete main)
Параметр Endianness формата : Big
Идентификатор кодека : 2000
Продолжительность : 1 ч. 34 м.
Вид битрейта : Постоянный
Битрейт : 224 Кбит/сек
Каналы : 2 канала
Расположение каналов : Front: L R
Частота : 48,0 КГц
Битовая глубина : 16 бит
Метод сжатия : С потерями
Размер потока : 151 Мбайт (11%)
Выравнивание : Разделение по промежуткам
Продолжительность промежутка : 40 мс. (1,00 видеокадр)
Время предзагрузки промежутка : 500 мс.
[Профиль]  [ЛС] 

XStOrMX

Стаж: 6 лет 2 месяца

Сообщений: 66

Откуда: Севастополь

Создавать темы 28-Авг-2014 17:06 (спустя 11 дней)

[Цитировать] 

отличный фильм) 8 из 10
[Профиль]  [ЛС] 

ivan

Стаж: 7 лет 3 месяца

Сообщений: 10

Создавать темы 01-Сен-2014 17:16 (спустя 4 дня)

[Цитировать] 

люди пишут по другому http://fast-torrent.ru/film/frantsuzskij-shpion.html
[Профиль]  [ЛС] 

hmnu11618

Стаж: 8 лет 7 месяцев

Сообщений: 6

Создавать темы 04-Сен-2014 19:09 (спустя 3 дня)

[Цитировать] 

Правильно пишут!
[Профиль]  [ЛС] 

-=DoC(ToP)=-™

Стаж: 5 лет 1 месяц

Сообщений: 472

Откуда: СЕВАСТОПОЛЬ

Создавать темы 05-Сен-2014 20:52 (спустя 1 день 1 час)

[Цитировать] 

ivan,
вообще пофигу на этих "людей"
[Профиль]  [ЛС] 

SPEKTOR

Стаж: 5 лет

Сообщений: 22

Откуда: ОТ ТУДА

Создавать темы 06-Сен-2014 19:51 (спустя 22 часа)

[Цитировать] 

муть
[Профиль]  [ЛС] 

Создавать темы 18-Янв-2015 01:08 (спустя 4 месяца 11 дней)

Топик был перенесен из форума Наше кино в форум Архив
Clieft
 
Показать сообщения:    
Ответить на тему

Текущее время: 09-Дек 16:29

Часовой пояс: UTC + 3



Вы не можете начинать темы
Вы не можете отвечать на сообщения
Вы не можете редактировать свои сообщения
Вы не можете удалять свои сообщения
Вы не можете голосовать в опросах
Вы не можете прикреплять файлы к сообщениям
Вы не можете скачивать файлы