Трансформеры: Эпоха истребления / Transformers: Age Of Extinction (Майкл Бэй) [2014, США, Китай, Фантастика, боевик, приключения, TS]

Ответить на тему
Статистика раздачи [Обновить пиров]
Скачал: [ 2 ]
 
   
 
 
Автор
Сообщение

Олег_SevStar ®

Стаж: 7 лет 8 месяцев

Сообщений: 2425

Откуда: из Союза...

Создавать темы 07-Сен-2014 00:17

[Цитировать] 

Трансформеры: Эпоха истребления / Transformers: Age Of Extinction
Страна: США, Китай
Жанр: Фантастика, боевик, приключения
Год выпуска: 2014
Продолжительность: 02:40:05
Перевод: Профессиональный (дублированный)
Режиссер: Майкл Бэй
Сценарий: Эрен Крюгер
Продюсер: Йен Брайс, Том ДеСанто
премьера (мир) 25 июня 2014
премьера (РФ) 26 июня 2014, «Централ Партнершип»
релиз на Blu-Ray Ноябрь 2014, «Новый Диск», ...
релиз на DVD Ноябрь 2014, «Новый Диск», ...
бюджет $210 000 000
сборы в мире $1 072 598 662

В ролях: Марк Уолберг, Никола Пельтц, Стэнли Туччи, Келси Грэммер, София Майлс, Эбигейл Клейн, Джек Рейнор, Титус Уэлливер, Питер Каллен, ТиДжей Миллер
Описание: Автоботы и десептиконы покинули планету, оставив человечество собирать ее по кусочкам. Между тем группа могущественных бизнесменов и гениальных ученых пытается извлечь уроки из ошибок прошлого и улучшить технологии до такой степени, чтобы выйти за пределы контролируемого ранее. В это время другая группа — древних мощных трансформеров — берет Землю под прицел.
Качество видео: TS
Формат видео: AVI
Видео: XviD, 2062 Кбит/с, 720x304
Аудио: Русский, английский (MP3, 2 ch, 256 Кбит/с)

MediaInfo

Общее
Полное имя : D:\Фильмы\Transformers.Age.of.Extinction.2014.D.TC.2800mb.avi
Формат : AVI
Формат/Информация : Audio Video Interleave
Профиль формата : OpenDML
Размер файла : 2,90 Гбайт
Продолжительность : 2 ч. 39 м.
Общий поток : 2594 Кбит/сек
Программа кодирования : VirtualDubMod 1.5.10.3 (build 2550/release)
Библиотека кодирования : VirtualDubMod build 2550/release
Видео
Идентификатор : 0
Формат : MPEG-4 Visual
Профиль формата : Advanced [email protected]
Параметр BVOP формата : 2
Параметр QPel формата : Нет
Параметр GMC формата : Без точки перехода
Параметр матрицы формата : Default (MPEG)
Идентификатор кодека : XVID
Идентификатор кодека/Подсказка : XviD
Продолжительность : 2 ч. 39 м.
Битрейт : 2062 Кбит/сек
Ширина : 720 пикселей
Высота : 304 пикселя
Соотношение сторон : 2,35:1
Частота кадров : 30,000 кадров/сек
Цветовое пространство : YUV
Субдискретизация насыщенности : 4:2:0
Битовая глубина : 8 бит
Тип развёртки : Прогрессивная
Метод сжатия : С потерями
Бит/(Пиксели*Кадры) : 0.314
Размер потока : 2,30 Гбайт (79%)
Библиотека кодирования : XviD 1.2.1 (UTC 2008-12-04)
Аудио #1
Идентификатор : 1
Формат : MPEG Audio
Идентификатор кодека : 55
Идентификатор кодека/Подсказка : MP3
Продолжительность : 2 ч. 39 м.
Битрейт : 256 Кбит/сек
Каналы : 2 канала
Частота : 48,0 КГц
Метод сжатия : С потерями
Размер потока : 293 Мбайт (10%)
Выравнивание : Разделение по промежуткам
Продолжительность промежутка : 33 мс. (1,00 видеокадр)
Время предзагрузки промежутка : 500 мс.
Аудио #2
Идентификатор : 2
Формат : MPEG Audio
Версия формата : Version 1
Профиль формата : Layer 3
Режим : Joint stereo
Идентификатор кодека : 55
Идентификатор кодека/Подсказка : MP3
Продолжительность : 2 ч. 39 м.
Вид битрейта : Постоянный
Битрейт : 256 Кбит/сек
Каналы : 2 канала
Частота : 48,0 КГц
Метод сжатия : С потерями
Размер потока : 293 Мбайт (10%)
Выравнивание : Соединение по промежуткам
Продолжительность промежутка : 33 мс. (1,00 видеокадр)
Время предзагрузки промежутка : 504 мс.
[Профиль]  [ЛС] 
Похожие темы
Форум Тема Автор Размер
Документальные Космос: Пространство и время (Cosmos: A Spacetime Odyssey) [2014, Документальный, HDTVRip 720p] S0ul 14,55 GB
TPS (3rd Person) Трансформеры: Битва за Кибертрон RePack by R.G. SevGamers Ruslan666815 4,36 GB
Сборники и Сиквелы Трансформеры: Трилогия / Transformers: Trilogy (Майкл Бэй) [ фантастика, боевик,приключения, BDRip 1080p] Lost_Mind 34,72 GB
HD Трансформеры: Эпоха истребления / Transformers: Age of Extinction (2014) BDRip 1080p | Чистый звук Lost_Mind 11,37 GB
Зарубежное кино Трансформеры: Эпоха истребления / Transformers: Age Of Extinction (Майкл Бэй) [2014, США, Китай, Фантастика, боевик, приключения, BDRip | Звук с TS] ЗвЕрЁк 2,6 GB
3D/Stereo фильмы Трансформеры: Эпоха истребления в 3Д / Transformers: Age of Extinction 3D (Майкл Бэй / Michael Bay) [2014, Фантастика, боевик, приключения, BDrip, 1080p] OverUnder / Вертикальная стереопара bot 31,08 GB
Показать сообщения:    
Ответить на тему

Текущее время: 09-Дек 04:53

Часовой пояс: UTC + 3



Вы не можете начинать темы
Вы не можете отвечать на сообщения
Вы не можете редактировать свои сообщения
Вы не можете удалять свои сообщения
Вы не можете голосовать в опросах
Вы не можете прикреплять файлы к сообщениям
Вы не можете скачивать файлы