Хорошие руки / Сезон: Серии: 1-12 из 12 (Юрий Кузьменко) [2014, Криминальная драма, HDTVRip]

Ответить на тему
Статистика раздачи [Обновить пиров]
Качаю: [ 1 ]
Скачал: [ 1 ]
 
   
 
 
Автор
Сообщение

Фунтик ®

Стаж: 8 лет 7 месяцев

Сообщений: 316

Откуда: из прошлого века

Создавать темы 09-Сен-2014 11:02

[Цитировать] 

Хорошие руки
Год выпуска: 2014
Производство: Россия
Жанр: Криминальная драма
Продолжительность: ~ 00:51:00
Режиссёр: Юрий Кузьменко
В ролях: Елена Ксенофонтова, Никита Салопин, Кирилл Сафонов, Николай Чиндяйкин, Ольга Шувалова (II), Александра Лупашко, Владислав Ветров, Владимир Капустин, Алёна Ивченко, Раиса Рязанова, Ксения Хаирова, Юлия Тельпухова, Михаил Владимиров, Дмитрий Панфилов, Михаил Хмуров, Ольга Хохлова, Ольга Ковалёва, Алексей Потапкин, Юлия Полынская, Алёна Ковалёва, Катерина Захарова, Екатерина Присмотрова-Белова, Дмитрий Кошелев, Антонина Комиссарова, Луиза Мосендз, Александр Алексеев (V), Сергей Галахов, Артем Манукян, Дарья Недоступ
Описание: Ольга Савельева – главврач роддома. Она прекрасный врач, ее роддом считается одним из лучших в городе. В нем рожают не только простые, но и весьма состоятельные или высокопоставленные роженицы. Ольга активно занимается профилактикой социального сиротства и курирует созданный ею Центр «Счастливая мама». В Центр стекается информация из поликлиник о неблагополучных беременных, имеющих намерения отказаться от ребенка. Как правило, с такими женщинами проводят профилактические беседы и направляют рожать в роддом к Савельевой. А здесь дети, от которых отказываются нерадивые мамаши, попадают, благодаря Ольге, в «хорошие руки», то есть к состоятельным, благополучным, но бездетным людям. Конечно, Ольгу «благодарят» значительными суммами за такое содействие, но – она считает, что не торгует детьми, а делает благое дело! А что: в сиротском доме им было бы лучше? С мужем, следователем прокуратуры Геннадием Мухиным, Ольга развелась, сыну Никите уже 18 лет. Стараниями Ольги, Никита избежал армии и поступил в престижный западный университет. Перед отъездом за границу, Никита устраивает прощальный вечер со своими друзьями на загородной даче. Ольга волнуется – почему Никита ей не звонит. Вскоре она узнает, что Никита убит. Мухин, расследуя убийство сына, обнаруживает, что оно связано с деятельностью Ольги…
Качество: HDTVRip
Формат: AVI
Видео кодек: XviD
Аудио кодек: AC3
Видео: ~ 1800 Кбит/с, 720x400
Аудио: AC3, 2 ch, 192 Кбит/с

MI

Формат : AVI
Формат/Информация : Audio Video Interleave
Размер файла : 725 Мбайт
Продолжительность : 50 м.
Общий поток : 2001 Кбит/сек
Программа кодирования : VirtualDubMod 1.5.10.3 | www.virtualdub-fr.org || (build 2550/release)
Библиотека кодирования : VirtualDub build 32507/release
Видео
Идентификатор : 0
Формат : MPEG-4 Visual
Профиль формата : Advanced [email protected]
Параметр BVOP формата : 1
Параметр QPel формата : Нет
Параметр GMC формата : Без точки перехода
Параметр матрицы формата : Default (H.263)
Идентификатор кодека : XVID
Идентификатор кодека/Подсказка : XviD
Продолжительность : 50 м.
Битрейт : 1799 Кбит/сек
Ширина : 720 пикселей
Высота : 400 пикселей
Соотношение сторон : 16:9
Частота кадров : 25,000 кадров/сек
Цветовое пространство : YUV
Субдискретизация насыщенности : 4:2:0
Битовая глубина : 8 бит
Тип развёртки : Прогрессивная
Метод сжатия : С потерями
Бит/(Пиксели*Кадры) : 0.250
Размер потока : 652 Мбайт (90%)
Библиотека кодирования : XviD 73
Аудио
Идентификатор : 1
Формат : AC-3
Формат/Информация : Audio Coding 3
Расширение режима : CM (complete main)
Параметр Endianness формата : Big
Идентификатор кодека : 2000
Продолжительность : 50 м.
Вид битрейта : Постоянный
Битрейт : 192 Кбит/сек
Каналы : 2 канала
Расположение каналов : Front: L R
Частота : 48,0 КГц
Битовая глубина : 16 бит
Метод сжатия : С потерями
Размер потока : 69,5 Мбайт (10%)
Выравнивание : Разделение по промежуткам
Продолжительность промежутка : 40 мс. (1,00 видеокадр)
Время предзагрузки промежутка : 500 мс.

Скриншоты



Последний раз редактировалось: Фунтик (2014-10-03 11:42), всего редактировалось 11 раз(а)
[Профиль]  [ЛС] 

Фунтик ®

Стаж: 8 лет 7 месяцев

Сообщений: 316

Откуда: из прошлого века

Создавать темы 10-Сен-2014 09:04 (спустя 22 часа)

[Цитировать] 

+ 3,4
[Профиль]  [ЛС] 

Фунтик ®

Стаж: 8 лет 7 месяцев

Сообщений: 316

Откуда: из прошлого века

Создавать темы 11-Сен-2014 10:56 (спустя 1 день 1 час)

[Цитировать] 

+5, 6
[Профиль]  [ЛС] 

Фунтик ®

Стаж: 8 лет 7 месяцев

Сообщений: 316

Откуда: из прошлого века

Создавать темы 12-Сен-2014 12:27 (спустя 1 день 1 час)

[Цитировать] 

+7,8
[Профиль]  [ЛС] 

Фунтик ®

Стаж: 8 лет 7 месяцев

Сообщений: 316

Откуда: из прошлого века

Создавать темы 16-Сен-2014 08:52 (спустя 3 дня)

[Цитировать] 

+9,10
[Профиль]  [ЛС] 

Фунтик ®

Стаж: 8 лет 7 месяцев

Сообщений: 316

Откуда: из прошлого века

Создавать темы 17-Сен-2014 12:16 (спустя 1 день 3 часа)

[Цитировать] 

+ 11 и 12 серии.
Фильм весь. Всем приятного просмотра!
[Профиль]  [ЛС] 
Похожие темы
Форум Тема Автор Размер
Отечественные сериалы Плохой хороший коп / good cop bad / Сезон: 1 / Серии: 1-16 из 16 (Максим Литвинов) [2016, Криминальная драма, WEB-DLRip] Круглофф 9,48 GB
Показать сообщения:    
Ответить на тему

Текущее время: 03-Дек 20:38

Часовой пояс: UTC + 3



Вы не можете начинать темы
Вы не можете отвечать на сообщения
Вы не можете редактировать свои сообщения
Вы не можете удалять свои сообщения
Вы не можете голосовать в опросах
Вы не можете прикреплять файлы к сообщениям
Вы не можете скачивать файлы