Властелин Колец: Трилогия / The Lord of the Rings: Trilogy (Питер Джексон) [2001-2003 г., Фэнтези, боевик, приключения, BDRip-AVC] AVO Гаврилов, Рябов

Ответить на тему
Статистика раздачи [Обновить пиров]
Качаю: [ 2 ]
Скачал: [ 4 ]
 
   
 
 
Автор
Сообщение

mihis ®

Стаж: 2 года 1 месяц

Сообщений: 221

Создавать темы 29-Окт-2014 20:55

[Цитировать] 

Властелин Колец / The Lord of the RingsТрилогия / Trilogy
Расширенные версии / Extended Edition

Властелин колец: Братство кольца / The Lord of the Rings: The Fellowship of the Ring (2001) BDRip-AVC

Властелин колец: Братство кольца / The Lord of the Rings: The Fellowship of the Ring
«Power can be held in the smallest of things...»
Расширенная версия / Extended Edition

Год выпуска: 2001
Производство: Новая Зеландия, США / New Line Cinema, The Saul Zaentz Company, WingNut Films
Жанр: Фэнтези, боевик, приключения
Продолжительность: 03:48:18
Перевод: Авторский (одноголосый, закадровый) Гаврилов, Рябов + Оригинал
Cубтитры: Русские, украинские, английские
Режиссер: Питер Джексон
В ролях:
Элайджа Вуд, Шон Эстин, Вигго Мортенсен, Иэн МакКеллен, Доминик Монахэн, Билли Бойд, Шон Бин, Орландо Блум, Джон Рис-Дэвис, Кристофер Ли
Описание:
Сказания о Средиземье — это хроника Великой войны за Кольцо, войны, длившейся не одну тысячу лет. Тот, кто владел Кольцом, получал власть над всеми живыми тварями, но был обязан служить злу. Тихая деревня, где живут хоббиты. Волшебник Гэндальф, придя на 111-й день рождения к своему старому другу Бильбо Бэггинсу, начинает вести разговор о кольце, которое Бильбо нашел много лет назад. Это кольцо принадлежало когда-то темному властителю Средиземья Саурону, и оно дает большую власть своему обладателю. Теперь Саурон хочет вернуть себе власть над Средиземьем. Бильбо отдает найденное кольцо своему племяннику Фродо, который пытается научиться справляться с тем страшным могуществом, которое дает ему кольцо...

Качество: BDRip-AVC
Формат: MKV
Видео кодек: H.264
Аудио кодек: AC3
Видео: AVC, 2569 Кбит/с, 1024x428, 23,976 кадр/сек
Аудио: AC3, 6 ch, 448 Кбит/с 2 AVO, Eng

Награды

Сатурн, 2003 год
Победитель (1):
Лучшее специальное DVD-издание — «For the Special Extended Version»
Оскар, 2002 год
Победитель (4):
Лучшая работа оператора
Лучшие визуальные эффекты
Лучший грим
Лучший оригинальный саундтрек
Номинации (9):
Лучший фильм
Лучшая мужская роль второго плана (Иэн МакКеллен)
Лучший режиссер (Питер Джексон)
Лучший адаптированный сценарий
Лучшие декорации
Лучшие костюмы
Лучший звук
Лучший монтаж
Лучшая песня — «May It Be»
Золотой глобус, 2002 год
Номинации (4):
Лучший фильм (драма)
Лучший режиссер (Питер Джексон)
Лучшая песня — «May It Be»
Лучший саундтрек
Премия канала «MTV», 2002 год
Победитель (2):
Лучший фильм
Мужской прорыв года (Орландо Блум)
Номинации (4):
Лучшая мужская роль (Элайджа Вуд)
Лучший злодей (Кристофер Ли)
Лучшая драка
Лучшая экшн-сцена
Британская академия, 2002 год
Победитель (5):
Лучший фильм
Лучшие визуальные эффекты
Лучший грим/прически
Премия имени Дэвида Лина за достижения в режиссуре (Питер Джексон)
Приз зрительских симпатий
Номинации ( Cool:
Лучшая мужская роль (Иэн МакКеллен)
Лучший адаптированный сценарий
Лучшая работа оператора
Лучшие костюмы
Лучший звук
Лучший монтаж
Лучшая работа художника-постановщика
Премия имени Энтони Эскуита за достижения в создании музыки к фильму
Сатурн, 2002 год
Победитель (3):
Лучший фэнтези-фильм
Лучший режиссер (Питер Джексон)
Лучший актер второго плана (Иэн МакКеллен)
Номинации (6):
Лучший сценарий
Лучшие костюмы
Лучшие спецэффекты
Лучшая музыка
Лучший грим
Премия журнала Cinescape (Genre Face of the Future) за лучшую мужскую роль (Орландо Блум)
Премия Гильдии актеров, 2002 год
Победитель (1):
Лучшая мужская роль второго плана (Иэн МакКеллен)
Номинации (1):
Лучший актерский состав

MediaInfo

Общее
Уникальный идентификатор : 234608103203303808114041127559229888561 (0xB07FE08AA46CC73A9EAD850090E85831)
Полное имя : E:Vlastelin.kolec.Trilogija.2001-2003.x264.BDRip.(AVC).ExKinoRayVlastelin.kolec.Bratstvo.kolca.2001.x264.BDRip.(AVC).ExKinoRay.mkv
Формат : Matroska
Размер файла : 6,24 Гбайт
Продолжительность : 3 ч. 48 м.
Общий поток : 3915 Кбит/сек
Название фильма : Vlastelin.kolec.Bratstvo.kolca.2001.x264.BDRip.(AVC).ExKinoRay
Дата кодирования : UTC 2013-07-01 18:23:02
Программа кодирования : mkvmerge v4.0.0 ('The Stars were mine') сборка от Jun 6 2010 16:18:42
Библиотека кодирования : libebml v1.0.0 + libmatroska v1.0.0
Видео
Идентификатор : 1
Формат : AVC
Формат/Информация : Advanced Video Codec
Профиль формата : [email protected]
Параметр CABAC формата : Да
Параметр ReFrames формата : 8 кадров
Идентификатор кодека : V_MPEG4/ISO/AVC
Продолжительность : 3 ч. 48 м.
Битрейт : 2569 Кбит/сек
Ширина : 1024 пикс.
Высота : 428 пикс.
Соотношение сторон : 2,35:1
Частота кадров : 23,976 кадр/сек
Цветовое пространство : YUV
Подвыборка цветности : 4:2:0
Битовая глубина : 8 бит
Тип развёртки : Прогрессивная
Бит/(Пиксели*Кадры) : 0.244
Размер потока : 3,98 Гбайт (64%)
Заголовок : Rip by Enigma-Vladislav71
Библиотека кодирования : x264 core 129 r2245 bc13772
Настройки программы : cabac=1 / ref=8 / deblock=1:-2:-2 / analyse=0x3:0x133 / me=umh / subme=11 / psy=1 / psy_rd=1.00:0.00 / mixed_ref=1 / me_range=48 / chroma_me=1 / trellis=2 / 8x8dct=1 / cqm=0 / deadzone=21,11 / fast_pskip=0 / chroma_qp_offset=-2 / threads=3 / lookahead_threads=1 / sliced_threads=0 / nr=0 / decimate=0 / interlaced=0 / bluray_compat=0 / constrained_intra=0 / bframes=8 / b_pyramid=2 / b_adapt=2 / b_bias=0 / direct=3 / weightb=1 / open_gop=0 / weightp=2 / keyint=240 / keyint_min=23 / scenecut=40 / intra_refresh=0 / rc_lookahead=40 / rc=2pass / mbtree=1 / bitrate=2569 / ratetol=1.0 / qcomp=0.60 / qpmin=10 / qpmax=51 / qpstep=4 / cplxblur=20.0 / qblur=0.5 / ip_ratio=1.40 / aq=2:1.00
Язык : English
Аудио #1
Идентификатор : 2
Формат : AC-3
Формат/Информация : Audio Coding 3
Расширение режима : CM (complete main)
Идентификатор кодека : A_AC3
Продолжительность : 3 ч. 48 м.
Вид битрейта : Постоянный
Битрейт : 448 Кбит/сек
Каналы : 6 каналов
Расположение каналов : Front: L C R, Side: L R, LFE
Частота : 48,0 КГц
Битовая глубина : 16 бит
Метод сжатия : С потерями
Размер потока : 732 Мбайт (11%)
Заголовок : Гаврилов
Язык : Russian
Аудио #2
Идентификатор : 3
Формат : AC-3
Формат/Информация : Audio Coding 3
Расширение режима : CM (complete main)
Идентификатор кодека : A_AC3
Продолжительность : 3 ч. 48 м.
Вид битрейта : Постоянный
Битрейт : 448 Кбит/сек
Каналы : 6 каналов
Расположение каналов : Front: L C R, Side: L R, LFE
Частота : 48,0 КГц
Битовая глубина : 16 бит
Метод сжатия : С потерями
Размер потока : 732 Мбайт (11%)
Заголовок : Рябов
Язык : Russian
Аудио #3
Идентификатор : 4
Формат : AC-3
Формат/Информация : Audio Coding 3
Расширение режима : CM (complete main)
Идентификатор кодека : A_AC3
Продолжительность : 3 ч. 48 м.
Вид битрейта : Постоянный
Битрейт : 448 Кбит/сек
Каналы : 6 каналов
Расположение каналов : Front: L C R, Side: L R, LFE
Частота : 48,0 КГц
Битовая глубина : 16 бит
Метод сжатия : С потерями
Размер потока : 732 Мбайт (11%)
Язык : English
Текст #1
Идентификатор : 5
Формат : UTF-8
Идентификатор кодека : S_TEXT/UTF8
Идентификатор кодека/Информация : UTF-8 Plain Text
Язык : Russian
Текст #2
Идентификатор : 6
Формат : UTF-8
Идентификатор кодека : S_TEXT/UTF8
Идентификатор кодека/Информация : UTF-8 Plain Text
Заголовок : Украинские
Текст #3
Идентификатор : 7
Формат : UTF-8
Идентификатор кодека : S_TEXT/UTF8
Идентификатор кодека/Информация : UTF-8 Plain Text
Язык : English

Властелин колец: Две крепости / The Lord of the Rings: The Two Towers (2002) BDRip-AVC

Властелин колец: Две крепости / The Lord of the Rings: The Two Towers
«A New Power Is Rising»
Расширенная версия / Extended Edition

Год выпуска: 2002
Производство: Новая Зеландия, США / Lord Zweite Productions Deutschland Filmproduktion GmbH & Co. KG, New Line Cinema
Жанр: Фэнтези, боевик, приключения
Продолжительность: 03:55:31
Перевод: Авторский (одноголосый, закадровый) Гаврилов, Рябов + Оригинал
Cубтитры: Русские, украинские, английские
Режиссер: Питер Джексон
В ролях:
Элайджа Вуд, Шон Эстин, Орландо Блум, Вигго Мортенсен, Иэн МакКеллен, Доминик Монахэн, Миранда Отто, Джон Рис-Дэвис, Энди Серкис, Билли Бойд
Описание:
Братство распалось, но Кольцо Всевластья должно быть уничтожено. Фродо и Сэм вынуждены доверить свои жизни Голлуму, который взялся провести их к вратам Мордора. Громадная Армия Сарумана приближается: члены братства и их союзники готовы принять бой. Битва за Средиземье продолжается.

Качество: BDRip-AVC
Формат: MKV
Видео кодек: H.264
Аудио кодек: AC3
Видео: AVC, 2569 Кбит/с, 1024x428, 23,976 кадр/сек
Аудио: AC3, 6 ch, 448 Кбит/с 2 AVO, Eng

Награды

Сатурн, 2004 год
Победитель (1):
Лучшее специальное DVD-издание — «For the Extended Edition»
Оскар, 2003 год
Победитель (2):
Лучший монтаж звука
Лучшие визуальные эффекты
Номинации (4):
Лучший фильм
Лучшие декорации
Лучший звук
Лучший монтаж
Золотой глобус, 2003 год
Номинации (2):
Лучший фильм (драма)
Лучший режиссер (Питер Джексон)
Премия канала «MTV», 2003 год
Победитель (4):
Лучший фильм
Лучшая экшн-сцена
Лучший виртуальный персонаж — «Голлум»
Лучшая экранная команда (Шон Эстин, Элайджа Вуд)
Номинации (1):
Лучшая мужская роль (Вигго Мортенсен)
Британская академия, 2003 год
Победитель (3):
Лучшие костюмы
Лучшие визуальные эффекты
Приз зрительских симпатий
Номинации (7):
Лучший фильм
Лучшая работа оператора
Лучший звук
Лучший монтаж
Лучший грим/прически
Лучшая работа художника-постановщика
Премия имени Дэвида Лина за достижения в режиссуре (Питер Джексон)
Сатурн, 2003 год
Победитель (4):
Лучший фэнтези-фильм
Лучший актер второго плана (Энди Серкис)
Лучшие костюмы
Лучший грим
Номинации (6):
Лучший режиссер (Питер Джексон)
Лучший актер (Вигго Мортенсен)
Лучший молодой актер/актриса (Элайджа Вуд)
Лучший сценарий
Лучшие спецэффекты
Лучшая музыка
Премия Гильдии актеров, 2003 год
Номинации (1):
Лучший актерский состав

MediaInfo

Общий поток : 3915 Кбит/сек
Название фильма : Vlastelin.kolec.Dve.krepostii.2002.x264.BDRip.(AVC).ExKinoRay
Дата кодирования : UTC 2013-07-01 18:36:23
Программа кодирования : mkvmerge v4.0.0 ('The Stars were mine') сборка от Jun 6 2010 16:18:42
Библиотека кодирования : libebml v1.0.0 + libmatroska v1.0.0
Видео
Идентификатор : 1
Формат : AVC
Формат/Информация : Advanced Video Codec
Профиль формата : [email protected]
Параметр CABAC формата : Да
Параметр ReFrames формата : 8 кадров
Идентификатор кодека : V_MPEG4/ISO/AVC
Продолжительность : 3 ч. 55 м.
Битрейт : 2569 Кбит/сек
Ширина : 1024 пикс.
Высота : 428 пикс.
Соотношение сторон : 2,35:1
Частота кадров : 23,976 кадр/сек
Цветовое пространство : YUV
Подвыборка цветности : 4:2:0
Битовая глубина : 8 бит
Тип развёртки : Прогрессивная
Бит/(Пиксели*Кадры) : 0.244
Размер потока : 4,10 Гбайт (64%)
Заголовок : Rip by Enigma-Vladislav71
Библиотека кодирования : x264 core 129 r2245 bc13772
Настройки программы : cabac=1 / ref=8 / deblock=1:-2:-2 / analyse=0x3:0x133 / me=umh / subme=11 / psy=1 / psy_rd=1.00:0.00 / mixed_ref=1 / me_range=48 / chroma_me=1 / trellis=2 / 8x8dct=1 / cqm=0 / deadzone=21,11 / fast_pskip=0 / chroma_qp_offset=-2 / threads=3 / lookahead_threads=1 / sliced_threads=0 / nr=0 / decimate=0 / interlaced=0 / bluray_compat=0 / constrained_intra=0 / bframes=8 / b_pyramid=2 / b_adapt=2 / b_bias=0 / direct=3 / weightb=1 / open_gop=0 / weightp=2 / keyint=240 / keyint_min=23 / scenecut=40 / intra_refresh=0 / rc_lookahead=40 / rc=2pass / mbtree=1 / bitrate=2569 / ratetol=1.0 / qcomp=0.60 / qpmin=10 / qpmax=51 / qpstep=4 / cplxblur=20.0 / qblur=0.5 / ip_ratio=1.40 / aq=2:1.00
Язык : English
Аудио #1
Идентификатор : 2
Формат : AC-3
Формат/Информация : Audio Coding 3
Расширение режима : CM (complete main)
Идентификатор кодека : A_AC3
Продолжительность : 3 ч. 55 м.
Вид битрейта : Постоянный
Битрейт : 448 Кбит/сек
Каналы : 6 каналов
Расположение каналов : Front: L C R, Side: L R, LFE
Частота : 48,0 КГц
Битовая глубина : 16 бит
Метод сжатия : С потерями
Размер потока : 755 Мбайт (11%)
Заголовок : Гаврилов
Язык : Russian
Аудио #2
Идентификатор : 3
Формат : AC-3
Формат/Информация : Audio Coding 3
Расширение режима : CM (complete main)
Идентификатор кодека : A_AC3
Продолжительность : 3 ч. 55 м.
Вид битрейта : Постоянный
Битрейт : 448 Кбит/сек
Каналы : 6 каналов
Расположение каналов : Front: L C R, Side: L R, LFE
Частота : 48,0 КГц
Битовая глубина : 16 бит
Метод сжатия : С потерями
Размер потока : 755 Мбайт (11%)
Заголовок : Рябов
Язык : Russian
Аудио #3
Идентификатор : 4
Формат : AC-3
Формат/Информация : Audio Coding 3
Расширение режима : CM (complete main)
Идентификатор кодека : A_AC3
Продолжительность : 3 ч. 55 м.
Вид битрейта : Постоянный
Битрейт : 448 Кбит/сек
Каналы : 6 каналов
Расположение каналов : Front: L C R, Side: L R, LFE
Частота : 48,0 КГц
Битовая глубина : 16 бит
Метод сжатия : С потерями
Размер потока : 755 Мбайт (11%)
Язык : English
Текст #1
Идентификатор : 5
Формат : UTF-8
Идентификатор кодека : S_TEXT/UTF8
Идентификатор кодека/Информация : UTF-8 Plain Text
Язык : Russian
Текст #2
Идентификатор : 6
Формат : UTF-8
Идентификатор кодека : S_TEXT/UTF8
Идентификатор кодека/Информация : UTF-8 Plain Text
Заголовок : Украинские
Текст #3
Идентификатор : 7
Формат : UTF-8
Идентификатор кодека : S_TEXT/UTF8
Идентификатор кодека/Информация : UTF-8 Plain Text
Язык : English

Властелин колец: Возвращение Короля / The Lord of the Rings: The Return of the King (2003) BDRip-AVC

Властелин колец: Возвращение Короля / The Lord of the Rings: The Return of the King
«There can be no triumph without loss. No victory without suffering. No freedom without sacrifice.»
Расширенная версия / Extended Edition

Год выпуска: 2003
Производство: Новая Зеландия, США / New Line Cinema, The Saul Zaentz Company, WingNut Films
Жанр: Фэнтези, боевик, приключения
Продолжительность: 04:23:16
Перевод: Авторский (одноголосый, закадровый) Гаврилов, Рябов + Оригинал
Cубтитры: Русские, украинские, английские
Режиссер: Питер Джексон
В ролях:
Элайджа Вуд, Шон Эстин, Билли Бойд, Доминик Монахэн, Орландо Блум, Вигго Мортенсен, Энди Серкис, Иэн МакКеллен, Миранда Отто, Лив Тайлер, Карл Урбан, Хьюго Уивинг, Шон Бин, Кейт Бланшетт
Описание:
Последняя часть трилогии о Кольце Всевластия и о героях, взявших на себя бремя спасения Средиземья. Повелитель сил Тьмы Саурон направляет свои бесчисленные рати под стены Минас-Тирита, крепости Последней Надежды. Он предвкушает близкую победу, но именно это и мешает ему заметить две крохотные фигурки — хоббитов, приближающихся к Роковой Горе, где им предстоит уничтожить Кольцо Всевластия. Улыбнется ли им счастье?

Качество: BDRip-AVC
Формат: MKV
Видео кодек: H.264
Аудио кодек: AC3
Видео: AVC, 2564 Кбит/с, 1024x426, 23,976 кадр/сек
Аудио: AC3, 6 ch, 448 Кбит/с 2 AVO, Eng

Награды

Сатурн, 2005 год
Победитель (1):
Лучшее специальное DVD-издание — «For the extended cut»
Оскар, 2004 год
Победитель (11):
Лучший фильм
Лучший режиссер (Питер Джексон)
Лучший адаптированный сценарий
Лучшие декорации
Лучшие костюмы
Лучший звук
Лучший монтаж
Лучшие визуальные эффекты
Лучший грим
Лучшая песня — «Into the West»
Лучший оригинальный саундтрек
Золотой глобус, 2004 год
Победитель (4):
Лучший фильм (драма)
Лучший режиссер (Питер Джексон)
Лучшая песня — «Into the West»
Лучший саундтрек
Премия канала «MTV», 2004 год
Победитель (2):
Лучший фильм
Лучшая экшн-сцена
Британская академия, 2004 год
Победитель (5):
Лучший фильм
Лучший адаптированный сценарий
Лучшая работа оператора
Лучшие визуальные эффекты
Приз зрительских симпатий
Номинации ( Cool:
Лучшая мужская роль второго плана (Иэн МакКеллен)
Лучшие костюмы
Лучший звук
Лучший монтаж
Лучший грим/прически
Лучшая работа художника-постановщика
Премия имени Дэвида Лина за достижения в режиссуре (Питер Джексон)
Премия имени Энтони Эскуита за достижения в создании музыки к фильму
Сатурн, 2004 год
Победитель ( Cool:
Лучший фэнтези-фильм
Лучший режиссер (Питер Джексон)
Лучший актер (Элайджа Вуд)
Лучший актер второго плана (Шон Эстин)
Лучший сценарий
Лучшие спецэффекты
Лучшая музыка
Лучший грим
Номинации (5):
Лучший актер (Вигго Мортенсен)
Лучший актер второго плана (Иэн МакКеллен)
Лучший актер второго плана (Энди Серкис)
Лучшая актриса второго плана (Миранда Отто)
Лучшие костюмы
Премия Гильдии актеров, 2004 год
Победитель (1):
Лучший актерский состав

MediaInfo

Общее
Уникальный идентификатор : 190458430375347408021635168164697055064 (0x8F48F59CAF980AA5A5DCAEB8BA9B9F58)
Полное имя : E:Vlastelin.kolec.Trilogija.2001-2003.x264.BDRip.(AVC).ExKinoRayVlastelin.kolec.Vozvrawenie.Korolja.2003.x264.BDRip.(AVC).ExKinoRay.mkv
Формат : Matroska
Размер файла : 7,19 Гбайт
Продолжительность : 4 ч. 23 м.
Общий поток : 3910 Кбит/сек
Название фильма : Vlastelin.kolec.Vozvrawenie.Korolja.2003.x264.BDRip(720p)_HDClub
Дата кодирования : UTC 2013-07-01 18:54:06
Программа кодирования : mkvmerge v4.0.0 ('The Stars were mine') сборка от Jun 6 2010 16:18:42
Библиотека кодирования : libebml v1.0.0 + libmatroska v1.0.0
Видео
Идентификатор : 1
Формат : AVC
Формат/Информация : Advanced Video Codec
Профиль формата : [email protected]
Параметр CABAC формата : Да
Параметр ReFrames формата : 8 кадров
Идентификатор кодека : V_MPEG4/ISO/AVC
Продолжительность : 4 ч. 23 м.
Битрейт : 2564 Кбит/сек
Ширина : 1024 пикс.
Высота : 426 пикс.
Соотношение сторон : 2,40:1
Частота кадров : 23,976 кадр/сек
Цветовое пространство : YUV
Подвыборка цветности : 4:2:0
Битовая глубина : 8 бит
Тип развёртки : Прогрессивная
Бит/(Пиксели*Кадры) : 0.245
Размер потока : 4,58 Гбайт (64%)
Заголовок : Rip by Enigma-Vladislav71
Библиотека кодирования : x264 core 129 r2245 bc13772
Настройки программы : cabac=1 / ref=8 / deblock=1:-2:-2 / analyse=0x3:0x133 / me=umh / subme=11 / psy=1 / psy_rd=1.00:0.00 / mixed_ref=1 / me_range=48 / chroma_me=1 / trellis=2 / 8x8dct=1 / cqm=0 / deadzone=21,11 / fast_pskip=0 / chroma_qp_offset=-2 / threads=3 / lookahead_threads=1 / sliced_threads=0 / nr=0 / decimate=0 / interlaced=0 / bluray_compat=0 / constrained_intra=0 / bframes=8 / b_pyramid=2 / b_adapt=2 / b_bias=0 / direct=3 / weightb=1 / open_gop=0 / weightp=2 / keyint=240 / keyint_min=23 / scenecut=40 / intra_refresh=0 / rc_lookahead=40 / rc=2pass / mbtree=1 / bitrate=2564 / ratetol=1.0 / qcomp=0.60 / qpmin=10 / qpmax=51 / qpstep=4 / cplxblur=20.0 / qblur=0.5 / ip_ratio=1.40 / aq=2:1.00
Язык : English
Аудио #1
Идентификатор : 2
Формат : AC-3
Формат/Информация : Audio Coding 3
Расширение режима : CM (complete main)
Идентификатор кодека : A_AC3
Продолжительность : 4 ч. 23 м.
Вид битрейта : Постоянный
Битрейт : 448 Кбит/сек
Каналы : 6 каналов
Расположение каналов : Front: L C R, Side: L R, LFE
Частота : 48,0 КГц
Битовая глубина : 16 бит
Метод сжатия : С потерями
Размер потока : 844 Мбайт (11%)
Заголовок : Гаврилов
Язык : Russian
Аудио #2
Идентификатор : 3
Формат : AC-3
Формат/Информация : Audio Coding 3
Расширение режима : CM (complete main)
Идентификатор кодека : A_AC3
Продолжительность : 4 ч. 23 м.
Вид битрейта : Постоянный
Битрейт : 448 Кбит/сек
Каналы : 6 каналов
Расположение каналов : Front: L C R, Side: L R, LFE
Частота : 48,0 КГц
Битовая глубина : 16 бит
Метод сжатия : С потерями
Размер потока : 844 Мбайт (11%)
Заголовок : Рябов
Язык : Russian
Аудио #3
Идентификатор : 4
Формат : AC-3
Формат/Информация : Audio Coding 3
Расширение режима : CM (complete main)
Идентификатор кодека : A_AC3
Продолжительность : 4 ч. 23 м.
Вид битрейта : Постоянный
Битрейт : 448 Кбит/сек
Каналы : 6 каналов
Расположение каналов : Front: L C R, Side: L R, LFE
Частота : 48,0 КГц
Битовая глубина : 16 бит
Метод сжатия : С потерями
Размер потока : 844 Мбайт (11%)
Язык : English
Текст #1
Идентификатор : 5
Формат : UTF-8
Идентификатор кодека : S_TEXT/UTF8
Идентификатор кодека/Информация : UTF-8 Plain Text
Язык : Russian
Текст #2
Идентификатор : 6
Формат : UTF-8
Идентификатор кодека : S_TEXT/UTF8
Идентификатор кодека/Информация : UTF-8 Plain Text
Заголовок : Украинские
Текст #3
Идентификатор : 7
Формат : UTF-8
Идентификатор кодека : S_TEXT/UTF8
Идентификатор кодека/Информация : UTF-8 Plain Text
Язык : English
[Профиль]  [ЛС] 
Похожие темы
Форум Тема Автор Размер
Сборники и Сиквелы Властелин колец / The Lord of the Rings (2001-2003) BDRip [1080p] [hand made 60fps] [Extended Edition] [Трилогия] F1eanor 58,29 GB
Показать сообщения:    
Ответить на тему

Текущее время: 10-Дек 08:03

Часовой пояс: UTC + 3



Вы не можете начинать темы
Вы не можете отвечать на сообщения
Вы не можете редактировать свои сообщения
Вы не можете удалять свои сообщения
Вы не можете голосовать в опросах
Вы не можете прикреплять файлы к сообщениям
Вы не можете скачивать файлы