Горацио Хорнблауэр / Horatio Hornblower (8 фильмов из 8) (Эндрю Грив) [1998-2003 г., Драма, приключения, военный, DVDRip] MVO

Ответить на тему
Статистика раздачи [Обновить пиров]
Нет
 
   
 
 
Автор
Сообщение

mihis ®

Стаж: 2 года 1 месяц

Сообщений: 221

Создавать темы 29-Окт-2014 20:59

[Цитировать] 

Горацио Хорнблауэр / Horatio Hornblower8 фильмов Горацио Хорнблауэр (англ. Horatio Hornblower) - вымышленный персонаж, офицер Королевского Британского Флота в период наполеоновских войн, созданный писателем С.С. Форестером. Этот персонаж стал символом жанра военно-морских приключений. Существует много параллелей между Хорнблауэром и реально существовавшими офицерами той эпохи, в особенности Томасом Кокрейном и Горацио Нельсоном.

Мичман Хорнблауэр: Равные шансы / Hornblower: The Even Chance (1998) DVDRip

Мичман Хорнблауэр: Равные шансы / Hornblower: The Even ChanceГод выпуска: 1998
Производство: Великобритания
Жанр: Драма, приключения, военный
Продолжительность: 01:40:03
Перевод: Профессиональный (многоголосый, закадровый) + Оригинал
Cубтитры: нет
Режиссер: Эндрю Грив
В ролях: Йоан Гриффит, Роберт Линдсэй, Дориан Хили, Майкл Бирн, Роберт Баферст, Дункан Белл, Пол Копли, Шон Джилдер, Саймон Шерлок, Крис Барнс, Джейми Бамбер, Колин МакЛахлан
Описание: 1793 год. В Европе началась эпоха войн и революций. Семнадцатилетний Горацио Хорнблауэр поступает на службу в британский королевский флот. Юный мичман страдает от морской болезни и терпит унижения от жестокого сослуживца Симпсона. После объявления войны Франции у Хорнблауэра появляется возможность проявить себя в сражениях с врагом и отстоять свою честь на дуэли.

Качество: DVDRip
Формат: AVI
Видео кодек: XviD
Аудио кодек: AC3
Видео: 704x400 (1.76:1), 25 fps, XviD build 65 ~1685 kbps avg, 0.24 bit/pixel
Аудио: 48 kHz, AC3 Dolby Digital, 2/0 (L,R) ch, ~192 kbps

MediaInfo

1_Мичман Хорнблауэр Равные шансы.1998.DVDRip.avi
Format : AVI
Format/Info : Audio Video Interleave
File size : 1.46 GiB
Duration : 1h 40mn
Overall bit rate : 2 084 Kbps
Writing application : VirtualDubModRus 1.5.10.2 (build 2542/release)
Writing library : VirtualDubMod build 2542/release
Video
ID : 0
Format : MPEG-4 Visual
Format profile : Advanced [email protected]
Format settings, BVOP : 1
Format settings, QPel : No
Format settings, GMC : No warppoints
Format settings, Matrix : Custom
Codec ID : XVID
Codec ID/Hint : XviD
Duration : 1h 40mn
Bit rate : 1 686 Kbps
Width : 704 pixels
Height : 400 pixels
Display aspect ratio : 16:9
Frame rate : 25.000 fps
Color space : YUV
Chroma subsampling : 4:2:0
Bit depth : 8 bits
Scan type : Progressive
Compression mode : Lossy
Bits/(Pixel*Frame) : 0.239
Stream size : 1.18 GiB (81%)
Writing library : XviD 65
Audio #1
ID : 1
Format : AC-3
Format/Info : Audio Coding 3
Mode extension : CM (complete main)
Format settings, Endianness : Big
Codec ID : 2000
Duration : 1h 40mn
Bit rate mode : Constant
Bit rate : 192 Kbps
Channel(s) : 2 channels
Channel positions : Front: L R
Sampling rate : 48.0 KHz
Bit depth : 16 bits
Compression mode : Lossy
Stream size : 137 MiB (9%)
Alignment : Split accross interleaves
Interleave, duration : 40 ms (1.00 video frame)
Interleave, preload duration : 500 ms
Audio #2
ID : 2
Format : AC-3
Format/Info : Audio Coding 3
Mode extension : CM (complete main)
Format settings, Endianness : Big
Codec ID : 2000
Duration : 1h 40mn
Bit rate mode : Constant
Bit rate : 192 Kbps
Channel(s) : 2 channels
Channel positions : Front: L R
Sampling rate : 48.0 KHz
Bit depth : 16 bits
Compression mode : Lossy
Stream size : 137 MiB (9%)
Alignment : Split accross interleaves
Interleave, duration : 40 ms (1.00 video frame)
Interleave, preload duration : 500 ms

Мичман Хорнблауэр: Экзамен на лейтенанта / Hornblower: The Examination for Lieutenant(1998) DVDRip

Мичман Хорнблауэр: Экзамен на лейтенанта / Hornblower: The Examination for LieutenantГод выпуска: 1998
Производство: Великобритания
Жанр: Драма, приключения, военный
Продолжительность: 01:38:32
Перевод: Профессиональный (многоголосый, закадровый) + Оригинал
Cубтитры: нет
Режиссер: Эндрю Грив
В ролях: Йоан Гриффит, Роберт Линдсэй, Дэнис Лоусон, Иэн МакНис, Эндрю Тирнан, Джонатан Кой, Йен МакЭлхинни, Пол Копли, Крис Барнс, Шон Джилдер, Саймон Шерлок, Колин МакЛахлан
Описание: Продолжается англо-французская война. Британская эскадра в Гибралтаре три недели не получает провиант. Моряки голодают, всё чаще раздаются призывы к бунту. Горацио Хорнблауэр отправляется в африканский порт Оран пополнить запасы продовольствия. Но там его ждёт страшное открытие, которое ставит под угрозу жизнь каждого моряка английской эскадры в Гибралтаре.

Качество: DVDRip
Формат: AVI
Видео кодек: XviD
Аудио кодек: AC3
Видео: 704x400 (1.76:1), 25 fps, XviD build 65 ~1717 kbps avg, 0.24 bit/pixel
Аудио: 48 kHz, AC3 Dolby Digital, 2/0 (L,R) ch, ~192 kbps

MediaInfo

2_Мичман Хорнблауэр Экзамен на лейтенанта.1998.DVDRip.avi
Format : AVI
Format/Info : Audio Video Interleave
File size : 1.46 GiB
Duration : 1h 38mn
Overall bit rate : 2 116 Kbps
Writing application : VirtualDubModRus 1.5.10.2 (build 2542/release)
Writing library : VirtualDubMod build 2542/release
Video
ID : 0
Format : MPEG-4 Visual
Format profile : Advanced [email protected]
Format settings, BVOP : 1
Format settings, QPel : No
Format settings, GMC : No warppoints
Format settings, Matrix : Custom
Codec ID : XVID
Codec ID/Hint : XviD
Duration : 1h 38mn
Bit rate : 1 718 Kbps
Width : 704 pixels
Height : 400 pixels
Display aspect ratio : 16:9
Frame rate : 25.000 fps
Color space : YUV
Chroma subsampling : 4:2:0
Bit depth : 8 bits
Scan type : Progressive
Compression mode : Lossy
Bits/(Pixel*Frame) : 0.244
Stream size : 1.18 GiB (81%)
Writing library : XviD 65
Audio #1
ID : 1
Format : AC-3
Format/Info : Audio Coding 3
Mode extension : CM (complete main)
Format settings, Endianness : Big
Codec ID : 2000
Duration : 1h 38mn
Bit rate mode : Constant
Bit rate : 192 Kbps
Channel(s) : 2 channels
Channel positions : Front: L R
Sampling rate : 48.0 KHz
Bit depth : 16 bits
Compression mode : Lossy
Stream size : 135 MiB (9%)
Alignment : Split accross interleaves
Interleave, duration : 40 ms (1.00 video frame)
Interleave, preload duration : 500 ms
Audio #2
ID : 2
Format : AC-3
Format/Info : Audio Coding 3
Mode extension : CM (complete main)
Format settings, Endianness : Big
Codec ID : 2000
Duration : 1h 38mn
Bit rate mode : Constant
Bit rate : 192 Kbps
Channel(s) : 2 channels
Channel positions : Front: L R
Sampling rate : 48.0 KHz
Bit depth : 16 bits
Compression mode : Lossy
Stream size : 135 MiB (9%)
Alignment : Split accross interleaves
Interleave, duration : 40 ms (1.00 video frame)
Interleave, preload duration : 500 ms

Мичман Хорнблауэр: Герцогиня и дьявол / Hornblower: The Duchess and the Devil (1999) DVDRip

Мичман Хорнблауэр: Герцогиня и дьявол / Hornblower: The Duchess and the DevilГод выпуска: 1999
Производство: Великобритания
Жанр: Драма, приключения, военный
Продолжительность: 01:39:43
Перевод: Профессиональный (многоголосый, закадровый) + Оригинал
Cубтитры: нет
Режиссер: Эндрю Грив
В ролях: Йоан Гриффит, Роберт Линдсэй, Шери Лунги, Кристофер Фулфорд, Рональд Пикап, Джейми Бамбер, Джонатан Кой, Джон Вудвайн, Пол Копли, Шон Джилдер, Саймон Шерлок, Жан-Ив Бертелут
Описание: Англия ведёт войну против Франции и Испании. Капитан Пэлью поручает Горацио Хорнблауэру отвезти на родину из Гибралтара одну знатную пассажирку — герцогиню Уорфедельскую. Однако плавание вдоль вражеских берегов заканчивается, едва начавшись, и Хорнблауэр попадает в испанский плен. Но герцогиня как будто совсем не расстроена таким поворотом событий…

Качество: DVDRip
Формат: AVI
Видео кодек: XviD
Аудио кодек: AC3
Видео: 704x400 (1.76:1), 25 fps, XviD build 65 ~1703 kbps avg, 0.24 bit/pixel
Аудио: 48 kHz, AC3 Dolby Digital, 2/0 (L,R) ch, ~192 kbps

MediaInfo

3_Мичман Хорнблауэр Герцогиня и дьявол.1999.DVDRip.avi
Format : AVI
Format/Info : Audio Video Interleave
File size : 1.46 GiB
Duration : 1h 39mn
Overall bit rate : 2 102 Kbps
Writing application : VirtualDubModRus 1.5.10.2 (build 2542/release)
Writing library : VirtualDubMod build 2542/release
Video
ID : 0
Format : MPEG-4 Visual
Format profile : Advanced [email protected]
Format settings, BVOP : 1
Format settings, QPel : No
Format settings, GMC : No warppoints
Format settings, Matrix : Custom
Codec ID : XVID
Codec ID/Hint : XviD
Duration : 1h 39mn
Bit rate : 1 704 Kbps
Width : 704 pixels
Height : 400 pixels
Display aspect ratio : 16:9
Frame rate : 25.000 fps
Color space : YUV
Chroma subsampling : 4:2:0
Bit depth : 8 bits
Scan type : Progressive
Compression mode : Lossy
Bits/(Pixel*Frame) : 0.242
Stream size : 1.19 GiB (81%)
Writing library : XviD 65
Audio #1
ID : 1
Format : AC-3
Format/Info : Audio Coding 3
Mode extension : CM (complete main)
Format settings, Endianness : Big
Codec ID : 2000
Duration : 1h 39mn
Bit rate mode : Constant
Bit rate : 192 Kbps
Channel(s) : 2 channels
Channel positions : Front: L R
Sampling rate : 48.0 KHz
Bit depth : 16 bits
Compression mode : Lossy
Stream size : 137 MiB (9%)
Alignment : Split accross interleaves
Interleave, duration : 40 ms (1.00 video frame)
Interleave, preload duration : 500 ms
Audio #2
ID : 2
Format : AC-3
Format/Info : Audio Coding 3
Mode extension : CM (complete main)
Format settings, Endianness : Big
Codec ID : 2000
Duration : 1h 39mn
Bit rate mode : Constant
Bit rate : 192 Kbps
Channel(s) : 2 channels
Channel positions : Front: L R
Sampling rate : 48.0 KHz
Bit depth : 16 bits
Compression mode : Lossy
Stream size : 137 MiB (9%)
Alignment : Split accross interleaves
Interleave, duration : 40 ms (1.00 video frame)
Interleave, preload duration : 500 ms

Лейтенант Хорнблауэр: Раки и лягушатники / Hornblower: The Frogs and the Lobsters (1999) DVDRip

Лейтенант Хорнблауэр: Раки и лягушатники / Hornblower: The Frogs and the LobstersГод выпуска: 1999
Производство: Великобритания
Жанр: Драма, приключения, военный
Продолжительность: 01:40:03
Перевод: Профессиональный (многоголосый, закадровый) + Оригинал
Cубтитры: нет
Режиссер: Эндрю Грив
В ролях: Йоан Гриффит, Роберт Линдсэй, Энтони Шер, Джон Шрэпнел, Сэмюэл Уэст, Питер Вон, Жан Бадин, Джейми Бамбер, Пол Копли, Джонатан Кой, Шон Джилдер, Йен Линдсэй
Описание: После победы революции во Франции остатки армии короля Людовика нашли убежище в Англии. С помощью британского флота роялисты надеются вернуться на родину и восстановить монархию. На стороне французов в военной операции против республиканцев участвует лейтенант Горацио Хорнблауэр. В чужой стране среди ужасов гражданской войны он встречает свою первую любовь.

Качество: DVDRip
Формат: AVI
Видео кодек: XviD
Аудио кодек: AC3
Видео: 688x384 (1.79:1), 25 fps, XviD build 65 ~1687 kbps avg, 0.26 bit/pixel
Аудио: 48 kHz, AC3 Dolby Digital, 2/0 (L,R) ch, ~192 kbps

MediaInfo

4_Лейтенант Хорнблауэр Раки и лягушатники.1999.DVDRip.avi
Format : AVI
Format/Info : Audio Video Interleave
File size : 1.46 GiB
Duration : 1h 40mn
Overall bit rate : 2 086 Kbps
Writing application : VirtualDubModRus 1.5.10.2 (build 2542/release)
Writing library : VirtualDubMod build 2542/release
Video
ID : 0
Format : MPEG-4 Visual
Format profile : Advanced [email protected]
Format settings, BVOP : 1
Format settings, QPel : No
Format settings, GMC : No warppoints
Format settings, Matrix : Custom
Codec ID : XVID
Codec ID/Hint : XviD
Duration : 1h 40mn
Bit rate : 1 688 Kbps
Width : 688 pixels
Height : 384 pixels
Display aspect ratio : 16:9
Frame rate : 25.000 fps
Color space : YUV
Chroma subsampling : 4:2:0
Bit depth : 8 bits
Scan type : Progressive
Compression mode : Lossy
Bits/(Pixel*Frame) : 0.256
Stream size : 1.18 GiB (81%)
Writing library : XviD 65
Audio #1
ID : 1
Format : AC-3
Format/Info : Audio Coding 3
Mode extension : CM (complete main)
Format settings, Endianness : Big
Codec ID : 2000
Duration : 1h 40mn
Bit rate mode : Constant
Bit rate : 192 Kbps
Channel(s) : 2 channels
Channel positions : Front: L R
Sampling rate : 48.0 KHz
Bit depth : 16 bits
Compression mode : Lossy
Stream size : 137 MiB (9%)
Alignment : Split accross interleaves
Interleave, duration : 40 ms (1.00 video frame)
Interleave, preload duration : 500 ms
Audio #2
ID : 2
Format : AC-3
Format/Info : Audio Coding 3
Mode extension : CM (complete main)
Format settings, Endianness : Big
Codec ID : 2000
Duration : 1h 40mn
Bit rate mode : Constant
Bit rate : 192 Kbps
Channel(s) : 2 channels
Channel positions : Front: L R
Sampling rate : 48.0 KHz
Bit depth : 16 bits
Compression mode : Lossy
Stream size : 137 MiB (9%)
Alignment : Split accross interleaves
Interleave, duration : 40 ms (1.00 video frame)
Interleave, preload duration : 500 ms

Лейтенант Хорнблауэр: Бунт / Hornblower: Mutiny (2001) DVDRip

Лейтенант Хорнблауэр: Бунт / Hornblower: MutinyГод выпуска: 2001
Производство: Великобритания
Жанр: Драма, приключения, военный
Продолжительность: 01:36:35
Перевод: Профессиональный (многоголосый, закадровый) + Оригинал
Cубтитры: нет
Режиссер: Эндрю Грив
В ролях: Йоан Гриффит, Роберт Линдсэй, Дэвид Уорнер, Николас Джон, Пол МакГэнн, Джейми Бамбер, Филип Гленистер, Пол Копли, Шон Джилдер, Дэвид Ринтул, Теренс Корригэн, Джилли Гилкрист
Описание: Война Англии и Испании продолжается в Новом Свете. Лейтенант Горацио Хорнблауэр служит на линейном корабле «Слава» под командованием легендарного капитана Сойера. На судно возложена миссия — уничтожить военную базу испанцев в Санто-Доминго. По мере приближения к Вест-Индии капитан ведёт себя всё более странно: отдаёт противоречивые приказы и жестоко наказывает любого, кто пытается их оспорить. Постепенно Сойер начинает подозревать своих офицеров в попытке поднять на корабле бунт.

Качество: DVDRip
Формат: AVI
Видео кодек: XviD
Аудио кодек: AC3
Видео: 704x448 (1.57:1), 25 fps, XviD build 65 ~1762 kbps avg, 0.22 bit/pixel
Аудио: 48 kHz, AC3 Dolby Digital, 2/0 (L,R) ch, ~192 kbps

MediaInfo

5_Лейтенант Хорнблауэр Бунт.2001.DVDRip.avi
Format : AVI
Format/Info : Audio Video Interleave
File size : 1.46 GiB
Duration : 1h 36mn
Overall bit rate : 2 162 Kbps
Writing application : VirtualDubModRus 1.5.10.2 (build 2542/release)
Writing library : VirtualDubMod build 2542/release
Video
ID : 0
Format : MPEG-4 Visual
Format profile : Advanced [email protected]
Format settings, BVOP : 1
Format settings, QPel : No
Format settings, GMC : No warppoints
Format settings, Matrix : Custom
Codec ID : XVID
Codec ID/Hint : XviD
Duration : 1h 36mn
Bit rate : 1 763 Kbps
Width : 704 pixels
Height : 448 pixels
Display aspect ratio : 1.571
Frame rate : 25.000 fps
Color space : YUV
Chroma subsampling : 4:2:0
Bit depth : 8 bits
Scan type : Progressive
Compression mode : Lossy
Bits/(Pixel*Frame) : 0.224
Stream size : 1.19 GiB (82%)
Writing library : XviD 65
Audio #1
ID : 1
Format : AC-3
Format/Info : Audio Coding 3
Mode extension : CM (complete main)
Format settings, Endianness : Big
Codec ID : 2000
Duration : 1h 36mn
Bit rate mode : Constant
Bit rate : 192 Kbps
Channel(s) : 2 channels
Channel positions : Front: L R
Sampling rate : 48.0 KHz
Bit depth : 16 bits
Compression mode : Lossy
Stream size : 133 MiB (9%)
Alignment : Split accross interleaves
Interleave, duration : 40 ms (1.00 video frame)
Interleave, preload duration : 500 ms
Audio #2
ID : 2
Format : AC-3
Format/Info : Audio Coding 3
Mode extension : CM (complete main)
Format settings, Endianness : Big
Codec ID : 2000
Duration : 1h 36mn
Bit rate mode : Constant
Bit rate : 192 Kbps
Channel(s) : 2 channels
Channel positions : Front: L R
Sampling rate : 48.0 KHz
Bit depth : 16 bits
Compression mode : Lossy
Stream size : 133 MiB (9%)
Alignment : Split accross interleaves
Interleave, duration : 40 ms (1.00 video frame)
Interleave, preload duration : 500 ms

Лейтенант Хорнблауэр: Возмездие / Hornblower: Retribution (2001) DVDRip

Лейтенант Хорнблауэр: Возмездие / Hornblower: RetributionГод выпуска: 2001
Производство: Великобритания
Жанр: Драма, приключения, военный
Продолжительность: 01:36:28
Перевод: Профессиональный (многоголосый, закадровый) + Оригинал
Cубтитры: нет
Режиссер: Эндрю Грив
В ролях: Йоан Гриффит, Дэвид Уорнер, Роберт Линдсэй, Николас Джонс, Пол МакГэнн, Джейми Бамбер, Теренс Корригэн, Филип Гленистер, Дэвид Ринтул, Шон Джилдер, Пол Копли, Пол Брайтвелл
Описание: Англичане пытаются уничтожить форт в Санто-Доминго — главную военную базу испанцев в Вест-Индии. Лейтенант Горацио Хорнблауэр высаживается у неприятельской крепости и готовится нанести внезапный удар по врагу. Однако необдуманные действия лейтенанта Бакленда, взявшего на себя командование операцией, в последний момент срывают планы англичан, и Хорнблауэр со своим отрядом оказывается под смертельным огнем испанцев.

Качество: DVDRip
Формат: AVI
Видео кодек: XviD
Аудио кодек: AC3
Видео: 704x448 (1.57:1), 25 fps, XviD build 65 ~1764 kbps avg, 0.22 bit/pixel
Аудио: 48 kHz, AC3 Dolby Digital, 2/0 (L,R) ch, ~192 kbps

MediaInfo

6_Лейтенант Хорнблауэр Возмездие.2001.DVDRip.avi
Format : AVI
Format/Info : Audio Video Interleave
File size : 1.46 GiB
Duration : 1h 36mn
Overall bit rate : 2 164 Kbps
Writing application : VirtualDubModRus 1.5.10.2 (build 2542/release)
Writing library : VirtualDubMod build 2542/release
Video
ID : 0
Format : MPEG-4 Visual
Format profile : Advanced [email protected]
Format settings, BVOP : 1
Format settings, QPel : No
Format settings, GMC : No warppoints
Format settings, Matrix : Custom
Codec ID : XVID
Codec ID/Hint : XviD
Duration : 1h 36mn
Bit rate : 1 766 Kbps
Width : 704 pixels
Height : 448 pixels
Display aspect ratio : 1.571
Frame rate : 25.000 fps
Color space : YUV
Chroma subsampling : 4:2:0
Bit depth : 8 bits
Scan type : Progressive
Compression mode : Lossy
Bits/(Pixel*Frame) : 0.224
Stream size : 1.19 GiB (82%)
Writing library : XviD 65
Audio #1
ID : 1
Format : AC-3
Format/Info : Audio Coding 3
Mode extension : CM (complete main)
Format settings, Endianness : Big
Codec ID : 2000
Duration : 1h 36mn
Bit rate mode : Constant
Bit rate : 192 Kbps
Channel(s) : 2 channels
Channel positions : Front: L R
Sampling rate : 48.0 KHz
Bit depth : 16 bits
Compression mode : Lossy
Stream size : 132 MiB (9%)
Alignment : Split accross interleaves
Interleave, duration : 40 ms (1.00 video frame)
Interleave, preload duration : 500 ms
Audio #2
ID : 2
Format : AC-3
Format/Info : Audio Coding 3
Mode extension : CM (complete main)
Format settings, Endianness : Big
Codec ID : 2000
Duration : 1h 36mn
Bit rate mode : Constant
Bit rate : 192 Kbps
Channel(s) : 2 channels
Channel positions : Front: L R
Sampling rate : 48.0 KHz
Bit depth : 16 bits
Compression mode : Lossy
Stream size : 132 MiB (9%)
Alignment : Split accross interleaves
Interleave, duration : 40 ms (1.00 video frame)
Interleave, preload duration : 500 ms

Капитан Хорнблауэр: Верность / Hornblower: Loyalty (2003) DVDRip

Капитан Хорнблауэр: Верность / Hornblower: LoyaltyГод выпуска: 2003
Производство: Великобритания
Жанр: Драма, приключения, военный
Продолжительность: 01:36:27
Перевод: Профессиональный (многоголосый, закадровый) + Оригинал
Cубтитры: нет
Режиссер: Эндрю Грив
В ролях: Йоан Гриффит, Роберт Линдсэй, Пол МакГэнн, Лоркан Кранич, Тони Хейгарт, Джулия Савалия, Барбара Флинн, Пол Копли, Шон Джилдер, Грег Уайз, Йен МакЭлхинни, Кристиан Коулсон
Описание: После прихода к власти Наполеона между Англией и Францией установилось хрупкое перемирие. Капитан Горацио Хорнблауэр на шлюпе «Отчаянный» отплывает к французскому берегу на секретную встречу с противниками Бонапарта. Однако в условленном месте Хорнблауэра ждёт не корабль союзников, а французский фрегат в полной боевой готовности.

Качество: DVDRip
Формат: AVI
Видео кодек: XviD
Аудио кодек: AC3
Видео: 704x384 (1.83:1), 25 fps, XviD build 65 ~1765 kbps avg, 0.26 bit/pixel
Аудио: 48 kHz, AC3 Dolby Digital, 2/0 (L,R) ch, ~192 kbps

MediaInfo

7_Капитан Хорнблауэр Верность.2003.DVDRip.avi
Format : AVI
Format/Info : Audio Video Interleave
File size : 1.46 GiB
Duration : 1h 36mn
Overall bit rate : 2 164 Kbps
Writing application : VirtualDubModRus 1.5.10.2 (build 2542/release)
Writing library : VirtualDubMod build 2542/release
Video
ID : 0
Format : MPEG-4 Visual
Format profile : Advanced [email protected]
Format settings, BVOP : 1
Format settings, QPel : No
Format settings, GMC : No warppoints
Format settings, Matrix : Custom
Codec ID : XVID
Codec ID/Hint : XviD
Duration : 1h 36mn
Bit rate : 1 766 Kbps
Width : 704 pixels
Height : 384 pixels
Display aspect ratio : 1.85:1
Frame rate : 25.000 fps
Color space : YUV
Chroma subsampling : 4:2:0
Bit depth : 8 bits
Scan type : Progressive
Compression mode : Lossy
Bits/(Pixel*Frame) : 0.261
Stream size : 1.19 GiB (82%)
Writing library : XviD 65
Audio #1
ID : 1
Format : AC-3
Format/Info : Audio Coding 3
Mode extension : CM (complete main)
Format settings, Endianness : Big
Codec ID : 2000
Duration : 1h 36mn
Bit rate mode : Constant
Bit rate : 192 Kbps
Channel(s) : 2 channels
Channel positions : Front: L R
Sampling rate : 48.0 KHz
Bit depth : 16 bits
Compression mode : Lossy
Stream size : 132 MiB (9%)
Alignment : Split accross interleaves
Interleave, duration : 40 ms (1.00 video frame)
Interleave, preload duration : 500 ms
Audio #2
ID : 2
Format : AC-3
Format/Info : Audio Coding 3
Mode extension : CM (complete main)
Format settings, Endianness : Big
Codec ID : 2000
Duration : 1h 36mn
Bit rate mode : Constant
Bit rate : 192 Kbps
Channel(s) : 2 channels
Channel positions : Front: L R
Sampling rate : 48.0 KHz
Bit depth : 16 bits
Compression mode : Lossy
Stream size : 132 MiB (9%)
Alignment : Split accross interleaves
Interleave, duration : 40 ms (1.00 video frame)
Interleave, preload duration : 500 ms

Капитан Хорнблауэр: Долг / Hornblower: Duty (2003) DVDRip

Капитан Хорнблауэр: Долг / Hornblower: DutyГод выпуска: 2003
Производство: Великобритания
Жанр: Драма, приключения, военный
Продолжительность: 01:36:01
Перевод: Профессиональный (многоголосый, закадровый) + Оригинал
Cубтитры: нет
Режиссер: Эндрю Грив
В ролях: Йоан Гриффит, Роберт Линдсэй, Пол МакГэнн, Лоркан Кранич, Тони Хейгарт, Джулия Савалия, Барбара Флинн, Пол Копли, Шон Джилдер, Джим Картер, Рон Кук, Джонатан Кой
Описание: В Европе Наполеон развязал масштабную войну. Едва успев сыграть свадьбу, капитан Горацио Хорнблауэр получает новый приказ. Он должен разыскать разведывательный шлюп «Кузнечик», который при странных обстоятельствах бесследно исчез у берегов Франции. Во время шторма Хорнблауэр спасает от стихии загадочную молодую чету, неизвестно как оказавшуюся в открытом море.

Качество: DVDRip
Формат: AVI
Видео кодек: XviD
Аудио кодек: AC3
Видео: 704x400 (1.76:1), 25 fps, XviD build 65 ~1773 kbps avg, 0.25 bit/pixel
Аудио: 48 kHz, AC3 Dolby Digital, 2/0 (L,R) ch, ~192 kbps

MediaInfo

8_Капитан Хорнблауэр Долг.2003.DVDRip.avi
Format : AVI
Format/Info : Audio Video Interleave
File size : 1.46 GiB
Duration : 1h 36mn
Overall bit rate : 2 172 Kbps
Writing application : VirtualDubModRus 1.5.10.2 (build 2542/release)
Writing library : VirtualDubMod build 2542/release
Video
ID : 0
Format : MPEG-4 Visual
Format profile : Advanced [email protected]
Format settings, BVOP : 1
Format settings, QPel : No
Format settings, GMC : No warppoints
Format settings, Matrix : Custom
Codec ID : XVID
Codec ID/Hint : XviD
Duration : 1h 36mn
Bit rate : 1 774 Kbps
Width : 704 pixels
Height : 400 pixels
Display aspect ratio : 16:9
Frame rate : 25.000 fps
Color space : YUV
Chroma subsampling : 4:2:0
Bit depth : 8 bits
Scan type : Progressive
Compression mode : Lossy
Bits/(Pixel*Frame) : 0.252
Stream size : 1.19 GiB (82%)
Writing library : XviD 65
Audio #1
ID : 1
Format : AC-3
Format/Info : Audio Coding 3
Mode extension : CM (complete main)
Format settings, Endianness : Big
Codec ID : 2000
Duration : 1h 35mn
Bit rate mode : Constant
Bit rate : 192 Kbps
Channel(s) : 2 channels
Channel positions : Front: L R
Sampling rate : 48.0 KHz
Bit depth : 16 bits
Compression mode : Lossy
Stream size : 132 MiB (9%)
Alignment : Split accross interleaves
Interleave, duration : 40 ms (1.00 video frame)
Interleave, preload duration : 500 ms
Audio #2
ID : 2
Format : AC-3
Format/Info : Audio Coding 3
Mode extension : CM (complete main)
Format settings, Endianness : Big
Codec ID : 2000
Duration : 1h 35mn
Bit rate mode : Constant
Bit rate : 192 Kbps
Channel(s) : 2 channels
Channel positions : Front: L R
Sampling rate : 48.0 KHz
Bit depth : 16 bits
Compression mode : Lossy
Stream size : 132 MiB (9%)
Alignment : Split accross interleaves
Interleave, duration : 40 ms (1.00 video frame)
Interleave, preload duration : 500 ms
[Профиль]  [ЛС] 
Показать сообщения:    
Ответить на тему

Текущее время: 03-Дек 03:18

Часовой пояс: UTC + 3



Вы не можете начинать темы
Вы не можете отвечать на сообщения
Вы не можете редактировать свои сообщения
Вы не можете удалять свои сообщения
Вы не можете голосовать в опросах
Вы не можете прикреплять файлы к сообщениям
Вы не можете скачивать файлы