Меч отмщения (Одинокий волк и его ребенок) / Kozure Okami (Lone Wolf and Cub) (6 фильмов из 6) (Кэндзи Мисуми, Буити Саито, Йошиюки Курода) [1972-1974 г., Боевик, драма, BDRip-AVC] MVO, AVO, DVO

Ответить на тему
Статистика раздачи [Обновить пиров]
Нет
 
   
 
 
Автор
Сообщение

mihis ®

Стаж: 2 года 1 месяц

Сообщений: 221

Создавать темы 29-Окт-2014 21:03

[Цитировать] 

Меч отмщения (Одинокий волк и его ребенок) / Kozure Okami (Lone Wolf and Cub)6 фильмов

Меч отмщения (Одинокий волк и его ребенок) / Kozure Okami (Lone Wolf and Cub) (1972) BDRip-AVC

Меч отмщения (Одинокий волк и его ребенок) / Kozure Okami (Lone Wolf and Cub)Год выпуска: 1972
Производство: Япония, Toho Company
Жанр: Боевик, драма
Продолжительность: 01:35:00
Перевод: Профессиональный (многоголосый закадровый) + Авторский (одноголосый закадровый) С.Кузнецов + Любительский (двухголосый закадровый) R.G. Orient Extreme + Оригинал
Cубтитры: Русские, английские
Режиссер: Кэндзи Мисуми
В ролях: Томисабуро Вакаяма, Фумио Ватанабэ, Томоко Маяма, Сигеру Цуюгути, Томоо Учида, Такэтоси Найто, Ёси Като, Йошико Фудзита, Рейко Касахара, Акихиро Томикава
Описание: Вместе с маленьким сыном, он как наемник начинает свое кровавое шествие мести против секретного сообщества, убившего его жену и поставившего грязное пятно на его доброе имя. Его жизнь разбита и он буквально поверил, что он в аду, он и его маленький сын становится одиноким волком и волчонком.

Качество: BDRip-AVC
Формат: MKV
Видео кодек: H.264
Аудио кодек: AC3
Видео: AVC, 1024x422 (2.40:1), 23.976 fps, 1 450 Kbps (0.109 bit/pixel)
Аудио #1: AC3, 48.0 KHz, 2 ch, 192 Kbps, CBR MVO
Аудио #2: AC3, 48.0 KHz, 2 ch, 192 Kbps, CBR AVO
Аудио #3: AC3, 48.0 KHz, 2 ch, 192 Kbps, CBR DVO
Аудио #4: AC3, 48.0 KHz, 2 ch, 192 Kbps, CBR Jap

MediaInfo

Общее
Уникальный идентификатор : 221080707333896052375813686981309819684 (0xA652986EA10CC6449C139A270B50EB24)
Полное имя : I:Mech.otmscheniya.6.chastej.iz.6.1972-1974.x264.Blu-ray.Remux.1080p-MediaClubMech.otmscheniya.6.chastej.iz.6.1972-1974.x264.BDRip.AVC-MediaClubMech.otmscheniya.1972.x264.BDRip.AVC-MediaClub.mkv
Формат : Matroska
Версия формата : Version 2
Размер файла : 1,29 Гбайт
Продолжительность : 1 ч. 35 м.
Общий поток : 1933 Кбит/сек
Название фильма : Mech otvscheniya (1972) BDRip-AVC=MediaClub=-[Викс]-
Дата кодирования : UTC 2013-09-23 08:40:02
Программа кодирования : mkvmerge v4.2.0 ('No Talking') сборка от Jul 28 2010 18:38:23
Библиотека кодирования : libebml v1.0.0 + libmatroska v1.0.0
Видео
Идентификатор : 1
Формат : AVC
Формат/Информация : Advanced Video Codec
Профиль формата : [email protected]
Параметр CABAC формата : Да
Параметр ReFrames формата : 8 кадров
Идентификатор кодека : V_MPEG4/ISO/AVC
Продолжительность : 1 ч. 35 м.
Битрейт : 1127 Кбит/сек
Номинальный битрейт : 1450 Кбит/сек
Ширина : 1024 пикселя
Высота : 422 пикселя
Соотношение сторон : 2,40:1
Режим частоты кадров : Постоянный
Частота кадров : 23,976 кадра/сек
Цветовое пространство : YUV
Субдискретизация насыщенности : 4:2:0
Битовая глубина : 8 бит
Тип развёртки : Прогрессивная
Бит/(Пиксели*Кадры) : 0.109
Размер потока : 772 Мбайт (58%)
Библиотека кодирования : x264 core 133 r2334 a3ac64b
Настройки программы : cabac=1 / ref=8 / deblock=1:-2:-2 / analyse=0x3:0x113 / me=umh / subme=11 / psy=1 / psy_rd=1.00:0.00 / mixed_ref=1 / me_range=48 / chroma_me=1 / trellis=2 / 8x8dct=1 / cqm=0 / deadzone=21,11 / fast_pskip=0 / chroma_qp_offset=-2 / threads=6 / lookahead_threads=1 / sliced_threads=0 / nr=0 / decimate=0 / interlaced=0 / bluray_compat=0 / constrained_intra=0 / bframes=8 / b_pyramid=2 / b_adapt=2 / b_bias=0 / direct=3 / weightb=1 / open_gop=0 / weightp=2 / keyint=240 / keyint_min=23 / scenecut=40 / intra_refresh=0 / rc_lookahead=40 / rc=2pass / mbtree=0 / bitrate=1450 / ratetol=1.0 / qcomp=0.60 / qpmin=0 / qpmax=69 / qpstep=4 / cplxblur=20.0 / qblur=0.5 / vbv_maxrate=50000 / vbv_bufsize=52500 / nal_hrd=none / ip_ratio=1.40 / pb_ratio=1.30 / aq=1:0.80
Язык : Japanese
Default : Да
Forced : Нет
Аудио #1
Идентификатор : 2
Формат : AC-3
Формат/Информация : Audio Coding 3
Расширение режима : CM (complete main)
Параметр Endianness формата : Big
Идентификатор кодека : A_AC3
Продолжительность : 1 ч. 35 м.
Вид битрейта : Постоянный
Битрейт : 192 Кбит/сек
Каналы : 2 канала
Расположение каналов : Front: L R
Частота : 48,0 КГц
Битовая глубина : 16 бит
Метод сжатия : С потерями
Размер потока : 131 Мбайт (10%)
Заголовок : PM
Язык : Russian
Default : Да
Forced : Нет
Аудио #2
Идентификатор : 3
Формат : AC-3
Формат/Информация : Audio Coding 3
Расширение режима : CM (complete main)
Параметр Endianness формата : Big
Идентификатор кодека : A_AC3
Продолжительность : 1 ч. 35 м.
Вид битрейта : Постоянный
Битрейт : 192 Кбит/сек
Каналы : 2 канала
Расположение каналов : Front: L R
Частота : 48,0 КГц
Битовая глубина : 16 бит
Метод сжатия : С потерями
Размер потока : 131 Мбайт (10%)
Заголовок : AP Kuznetsov
Default : Нет
Forced : Нет
Аудио #3
Идентификатор : 4
Формат : AC-3
Формат/Информация : Audio Coding 3
Расширение режима : CM (complete main)
Параметр Endianness формата : Big
Идентификатор кодека : A_AC3
Продолжительность : 1 ч. 35 м.
Вид битрейта : Постоянный
Битрейт : 192 Кбит/сек
Каналы : 2 канала
Расположение каналов : Front: L R
Частота : 48,0 КГц
Битовая глубина : 16 бит
Метод сжатия : С потерями
Размер потока : 131 Мбайт (10%)
Заголовок : LD (R.G. Orient Extreme)
Язык : Russian
Default : Нет
Forced : Нет
Аудио #4
Идентификатор : 5
Формат : AC-3
Формат/Информация : Audio Coding 3
Расширение режима : CM (complete main)
Параметр Endianness формата : Big
Идентификатор кодека : A_AC3
Продолжительность : 1 ч. 35 м.
Вид битрейта : Постоянный
Битрейт : 192 Кбит/сек
Каналы : 2 канала
Расположение каналов : Front: L R
Частота : 48,0 КГц
Битовая глубина : 16 бит
Метод сжатия : С потерями
Размер потока : 131 Мбайт (10%)
Язык : Japanese
Default : Нет
Forced : Нет
Текст #1
Идентификатор : 6
Формат : UTF-8
Идентификатор кодека : S_TEXT/UTF8
Идентификатор кодека/Информация : UTF-8 Plain Text
Заголовок : Keygeneral
Язык : Russian
Default : Да
Forced : Нет
Текст #2
Идентификатор : 7
Формат : UTF-8
Идентификатор кодека : S_TEXT/UTF8
Идентификатор кодека/Информация : UTF-8 Plain Text
Заголовок : Tora Asakura
Язык : Russian
Default : Нет
Forced : Нет
Текст #3
Идентификатор : 8
Формат : UTF-8
Идентификатор кодека : S_TEXT/UTF8
Идентификатор кодека/Информация : UTF-8 Plain Text
Язык : English
Default : Нет
Forced : Нет
Меню
00:00:00.000 : :Chapter 01
00:07:08.803 : :Chapter 02
00:10:50.066 : :Chapter 03
00:17:46.607 : :Chapter 04
00:27:37.155 : :Chapter 05
00:46:21.069 : :Chapter 06
01:03:47.573 : :Chapter 07
01:12:17.875 : :Chapter 08
01:23:18.994 : :Chapter 09

Меч отмщения 2 (Одинокий волк и его ребенок 2: Младенец в Коляске на Реке Стикс) / Kozure Okami 2: Sanzu no kawa no ubaguruma (Lone Wolf and Cub 2 - Babycart at the River Styx) (1972) BDRip-AVC

Меч отмщения 2 (Одинокий волк и его ребенок: Младенец в Коляске на Реке Стикс) / Kozure Okami 2: Sanzu no kawa no ubaguruma (Lone Wolf and Cub 2 - Babycart at the River Styx)Год выпуска: 1972
Производство: Япония, Toho Company
Жанр: Боевик, драма
Продолжительность: 01:32:00
Перевод: Авторский (одноголосый закадровый) С.Кузнецов + Любительский (двухголосый закадровый) R.G. Orient Extreme + Оригинал
Cубтитры: Русские, английские
Режиссер: Кэндзи Мисуми
В ролях: Томисабуро Вакаяма, Каё Мацуо, Акидзи Кобаяси, Минору Оки, Син Кисида, Такаси Эбата, Каппей Мацумото, Акихиро Томикава, Изуми Аюкава
Описание: Мафия, скрывающаяся под благородным именем клана Ягю, убила жену Огами Итто и сместила его с должности официального палача сёгуната. Теперь Огами Итто со своим сыном Дайгоро скитаются по стране. Теперь он — наёмный убийца. Теперь он одинокий волк с волчонком.
Огами Итто — мёртв. Живо лишь желание отомстить УРА-ЯГЮ. Понимая это, злой гений «Теневого Ягю», Рэцудо, отдаёт приказ особому подразделению своего клана — женщинам-ниндзя Акаси-Ягю. Приказ — убить Огами. В то же время Огами оказывается нанятым кланом Ава для того, чтобы убить изменника, который пытается продать сёгунату секрет производства красителя Ава-индиго, секрет производства, которым живёт клан Ава.
Чтобы защитить перебежчика во время его поездки в Эдо, сёгунат нанимает трёх грозных воинов, известных, как «Боги Смерти». Но истинный Бог Смерти один — это Огами Итто.

Качество: BDRip-AVC
Формат: MKV
Видео кодек: H.264
Аудио кодек: AC3
Видео: AVC, 1024x428 (2.35:1), 23.976 fps, 1 450 Kbps (0.110 bit/pixel)
Аудио #1: AC3, 48.0 KHz, 2 ch, 192 Kbps, CBR AVO
Аудио #2: AC3, 48.0 KHz, 2 ch, 192 Kbps, CBR DVO
Аудио #3: AC3, 48.0 KHz, 2 ch, 192 Kbps, CBR Jap

MediaInfo

Общее
Уникальный идентификатор : 249256354396072955598719845966834949838 (0xBB850715C68E2E0FB88D306EF4A9DECE)
Полное имя : I:Mech.otmscheniya.6.chastej.iz.6.1972-1974.x264.Blu-ray.Remux.1080p-MediaClubMech.otmscheniya.6.chastej.iz.6.1972-1974.x264.BDRip.AVC-MediaClubMech.otmscheniya.2.Mladenets.v.kolyaske.na.reke.stiks.1972.x264.BDRip.AVC-MediaClub.mkv
Формат : Matroska
Версия формата : Version 2
Размер файла : 1,15 Гбайт
Продолжительность : 1 ч. 32 м.
Общий поток : 1770 Кбит/сек
Название фильма : Mech otmscheniya 2 (1972) BDRip-AVC -MediaClub=Викс=
Дата кодирования : UTC 2013-09-23 08:45:36
Программа кодирования : mkvmerge v4.2.0 ('No Talking') сборка от Jul 28 2010 18:38:23
Библиотека кодирования : libebml v1.0.0 + libmatroska v1.0.0
Видео
Идентификатор : 1
Формат : AVC
Формат/Информация : Advanced Video Codec
Профиль формата : [email protected]
Параметр CABAC формата : Да
Параметр ReFrames формата : 8 кадров
Идентификатор кодека : V_MPEG4/ISO/AVC
Продолжительность : 1 ч. 32 м.
Битрейт : 1159 Кбит/сек
Номинальный битрейт : 1450 Кбит/сек
Ширина : 1024 пикселя
Высота : 428 пикселей
Соотношение сторон : 2,40:1
Режим частоты кадров : Постоянный
Частота кадров : 23,976 кадра/сек
Цветовое пространство : YUV
Субдискретизация насыщенности : 4:2:0
Битовая глубина : 8 бит
Тип развёртки : Прогрессивная
Бит/(Пиксели*Кадры) : 0.110
Размер потока : 771 Мбайт (65%)
Библиотека кодирования : x264 core 133 r2334 a3ac64b
Настройки программы : cabac=1 / ref=8 / deblock=1:-2:-2 / analyse=0x3:0x113 / me=umh / subme=11 / psy=1 / psy_rd=1.00:0.00 / mixed_ref=1 / me_range=48 / chroma_me=1 / trellis=2 / 8x8dct=1 / cqm=0 / deadzone=21,11 / fast_pskip=0 / chroma_qp_offset=-2 / threads=6 / lookahead_threads=1 / sliced_threads=0 / nr=0 / decimate=0 / interlaced=0 / bluray_compat=0 / constrained_intra=0 / bframes=8 / b_pyramid=2 / b_adapt=2 / b_bias=0 / direct=3 / weightb=1 / open_gop=0 / weightp=2 / keyint=240 / keyint_min=23 / scenecut=40 / intra_refresh=0 / rc_lookahead=40 / rc=2pass / mbtree=0 / bitrate=1450 / ratetol=1.0 / qcomp=0.60 / qpmin=0 / qpmax=69 / qpstep=4 / cplxblur=20.0 / qblur=0.5 / vbv_maxrate=50000 / vbv_bufsize=52500 / nal_hrd=none / ip_ratio=1.40 / pb_ratio=1.30 / aq=1:0.80
Язык : Japanese
Default : Да
Forced : Нет
Аудио #1
Идентификатор : 2
Формат : AC-3
Формат/Информация : Audio Coding 3
Расширение режима : CM (complete main)
Параметр Endianness формата : Big
Идентификатор кодека : A_AC3
Продолжительность : 1 ч. 32 м.
Вид битрейта : Постоянный
Битрейт : 192 Кбит/сек
Каналы : 2 канала
Расположение каналов : Front: L R
Частота : 48,0 КГц
Битовая глубина : 16 бит
Метод сжатия : С потерями
Размер потока : 128 Мбайт (11%)
Заголовок : AP (Kuznetsov)
Язык : Russian
Default : Да
Forced : Нет
Аудио #2
Идентификатор : 3
Формат : AC-3
Формат/Информация : Audio Coding 3
Расширение режима : CM (complete main)
Параметр Endianness формата : Big
Идентификатор кодека : A_AC3
Продолжительность : 1 ч. 32 м.
Вид битрейта : Постоянный
Битрейт : 192 Кбит/сек
Каналы : 2 канала
Расположение каналов : Front: L R
Частота : 48,0 КГц
Битовая глубина : 16 бит
Метод сжатия : С потерями
Размер потока : 128 Мбайт (11%)
Заголовок : LD (R.G. Orient Extreme)
Язык : Russian
Default : Нет
Forced : Нет
Аудио #3
Идентификатор : 4
Формат : AC-3
Формат/Информация : Audio Coding 3
Расширение режима : CM (complete main)
Параметр Endianness формата : Big
Идентификатор кодека : A_AC3
Продолжительность : 1 ч. 32 м.
Вид битрейта : Постоянный
Битрейт : 192 Кбит/сек
Каналы : 2 канала
Расположение каналов : Front: L R
Частота : 48,0 КГц
Битовая глубина : 16 бит
Метод сжатия : С потерями
Размер потока : 128 Мбайт (11%)
Язык : Japanese
Default : Нет
Forced : Нет
Текст #1
Идентификатор : 5
Формат : UTF-8
Идентификатор кодека : S_TEXT/UTF8
Идентификатор кодека/Информация : UTF-8 Plain Text
Заголовок : Кeygeneral
Язык : Russian
Default : Да
Forced : Нет
Текст #2
Идентификатор : 6
Формат : UTF-8
Идентификатор кодека : S_TEXT/UTF8
Идентификатор кодека/Информация : UTF-8 Plain Text
Заголовок : Тоrа Аsаkurа
Язык : Russian
Default : Нет
Forced : Нет
Текст #3
Идентификатор : 7
Формат : UTF-8
Идентификатор кодека : S_TEXT/UTF8
Идентификатор кодека/Информация : UTF-8 Plain Text
Язык : English
Default : Нет
Forced : Нет
Меню
00:00:00.000 : :Chapter 01
00:04:56.879 : :Chapter 02
00:10:48.981 : :Chapter 03
00:16:06.298 : :Chapter 04
00:25:14.554 : :Chapter 05
00:35:48.312 : :Chapter 06
00:49:08.695 : :Chapter 07
01:07:13.279 : :Chapter 08
01:21:09.865 : :Chapter 09

Меч отмщения 3 (Одинокий волк и его ребенок 3: Младенец в Коляске в царстве теней) / Kozure Okami 3: Shinikazeni mukau ubaguruma (Lone Wolf and Cub 3 - BBabycart to Hades)(Lone Wolf and Cub) (1972) BDRip-AVC

Меч отмщения 3 (Одинокий волк и его ребенок 3: Младенец в Коляске в царстве теней) / Kozure Okami 3: Shinikazeni mukau ubaguruma (Lone Wolf and Cub 3 - BBabycart to Hades)Год выпуска: 1972
Производство: Япония, Toho Company
Жанр: Боевик, драма
Продолжительность: 01:29:02
Перевод: Авторский (одноголосый закадровый) С.Кузнецов + Любительский (двухголосый закадровый) R.G. Orient Extreme + Оригинал
Cубтитры: Русские, английские
Режиссер: Кэндзи Мисуми
В ролях: Томисабуро Вакаяма, Гоу Като, Юко Хама, Исао Ямагата, Мититаро Мидзусима, Икиро Накая, Акихиро Томикава, Саёко Като, Дзюн Хамамура, Дайго Кусано
Описание: Мститель с мечом и сыном продолжает свои странствия, сокрушая нападающих с прежним успехом. В этом фильме Ито освобождает девушку, проданную собственными родителями в публичный дом. Для этого он берет на себя испытания пыткой, которой она должна была быть подвержена.

Качество: BDRip-AVC
Формат: MKV
Видео кодек: H.264
Аудио кодек: AC3
Видео: AVC, 1024x436 (2.35:1), 23.976 fps, 1 700 Kbps (0.159 bit/pixel)
Аудио #1: AC3, 48.0 KHz, 2 ch, 192 Kbps, CBR AVO
Аудио #2: AC3, 48.0 KHz, 2 ch, 192 Kbps, CBR DVO
Аудио #3: AC3, 48.0 KHz, 2 ch, 192 Kbps, CBR Jap

MediaInfo

Общее
Уникальный идентификатор : 184329631130383508548725095533643202020 (0x8AAC987AC2D8450BB6A071F355967DE4)
Полное имя : I:Mech.otmscheniya.6.chastej.iz.6.1972-1974.x264.Blu-ray.Remux.1080p-MediaClubMech.otmscheniya.6.chastej.iz.6.1972-1974.x264.BDRip.AVC-MediaClubMech.otmscheniya.3.Mladenets.v.kolyaske.v.tsarstve.tenej.1972.x264.BDRip.AVC-MediaClub.mkv
Формат : Matroska
Версия формата : Version 2
Размер файла : 1,42 Гбайт
Продолжительность : 1 ч. 29 м.
Общий поток : 2279 Кбит/сек
Название фильма : Mech otmscheniya 3 (1972) BDRip-AVC -MediaClub=Викс=
Дата кодирования : UTC 2013-09-23 08:53:11
Программа кодирования : mkvmerge v4.2.0 ('No Talking') сборка от Jul 28 2010 18:38:23
Библиотека кодирования : libebml v1.0.0 + libmatroska v1.0.0
Видео
Идентификатор : 1
Формат : AVC
Формат/Информация : Advanced Video Codec
Профиль формата : [email protected]
Параметр CABAC формата : Да
Параметр ReFrames формата : 8 кадров
Идентификатор кодека : V_MPEG4/ISO/AVC
Продолжительность : 1 ч. 29 м.
Битрейт : 1700 Кбит/сек
Ширина : 1024 пикселя
Высота : 436 пикселей
Соотношение сторон : 2,35:1
Режим частоты кадров : Постоянный
Частота кадров : 23,976 кадра/сек
Цветовое пространство : YUV
Субдискретизация насыщенности : 4:2:0
Битовая глубина : 8 бит
Тип развёртки : Прогрессивная
Бит/(Пиксели*Кадры) : 0.159
Размер потока : 1,03 Гбайт (73%)
Библиотека кодирования : x264 core 133 r2334 a3ac64b
Настройки программы : cabac=1 / ref=8 / deblock=1:-2:-2 / analyse=0x3:0x113 / me=umh / subme=11 / psy=1 / psy_rd=1.00:0.00 / mixed_ref=1 / me_range=48 / chroma_me=1 / trellis=2 / 8x8dct=1 / cqm=0 / deadzone=21,11 / fast_pskip=0 / chroma_qp_offset=-2 / threads=6 / lookahead_threads=1 / sliced_threads=0 / nr=0 / decimate=0 / interlaced=0 / bluray_compat=0 / constrained_intra=0 / bframes=8 / b_pyramid=2 / b_adapt=2 / b_bias=0 / direct=3 / weightb=1 / open_gop=0 / weightp=2 / keyint=240 / keyint_min=23 / scenecut=40 / intra_refresh=0 / rc_lookahead=40 / rc=2pass / mbtree=0 / bitrate=1700 / ratetol=1.0 / qcomp=0.60 / qpmin=0 / qpmax=69 / qpstep=4 / cplxblur=20.0 / qblur=0.5 / vbv_maxrate=50000 / vbv_bufsize=52500 / nal_hrd=none / ip_ratio=1.40 / pb_ratio=1.30 / aq=1:0.80
Язык : Japanese
Default : Да
Forced : Нет
Аудио #1
Идентификатор : 2
Формат : AC-3
Формат/Информация : Audio Coding 3
Расширение режима : CM (complete main)
Параметр Endianness формата : Big
Идентификатор кодека : A_AC3
Продолжительность : 1 ч. 29 м.
Вид битрейта : Постоянный
Битрейт : 192 Кбит/сек
Каналы : 2 канала
Расположение каналов : Front: L R
Частота : 48,0 КГц
Битовая глубина : 16 бит
Метод сжатия : С потерями
Размер потока : 122 Мбайт (8%)
Заголовок : AP Kuznetsov
Язык : Russian
Default : Да
Forced : Нет
Аудио #2
Идентификатор : 3
Формат : AC-3
Формат/Информация : Audio Coding 3
Расширение режима : CM (complete main)
Параметр Endianness формата : Big
Идентификатор кодека : A_AC3
Продолжительность : 1 ч. 29 м.
Вид битрейта : Постоянный
Битрейт : 192 Кбит/сек
Каналы : 2 канала
Расположение каналов : Front: L R
Частота : 48,0 КГц
Битовая глубина : 16 бит
Метод сжатия : С потерями
Размер потока : 122 Мбайт (8%)
Заголовок : LD (R.G. Orient Extreme)
Язык : Russian
Default : Нет
Forced : Нет
Аудио #3
Идентификатор : 4
Формат : AC-3
Формат/Информация : Audio Coding 3
Расширение режима : CM (complete main)
Параметр Endianness формата : Big
Идентификатор кодека : A_AC3
Продолжительность : 1 ч. 29 м.
Вид битрейта : Постоянный
Битрейт : 192 Кбит/сек
Каналы : 2 канала
Расположение каналов : Front: L R
Частота : 48,0 КГц
Битовая глубина : 16 бит
Метод сжатия : С потерями
Размер потока : 122 Мбайт (8%)
Язык : Japanese
Default : Нет
Forced : Нет
Текст #1
Идентификатор : 5
Формат : UTF-8
Идентификатор кодека : S_TEXT/UTF8
Идентификатор кодека/Информация : UTF-8 Plain Text
Заголовок : Кeygeneral
Язык : Russian
Default : Да
Forced : Нет
Текст #2
Идентификатор : 6
Формат : UTF-8
Идентификатор кодека : S_TEXT/UTF8
Идентификатор кодека/Информация : UTF-8 Plain Text
Заголовок : Тоrа Аsаkurа
Язык : Russian
Default : Нет
Forced : Нет
Текст #3
Идентификатор : 7
Формат : UTF-8
Идентификатор кодека : S_TEXT/UTF8
Идентификатор кодека/Информация : UTF-8 Plain Text
Язык : English
Default : Нет
Forced : Нет
Меню
00:00:00.000 : :Chapter 01
00:06:26.094 : :Chapter 02
00:20:09.416 : :Chapter 03
00:39:07.428 : :Chapter 04
00:45:22.177 : :Chapter 05
00:57:33.241 : :Chapter 06
01:10:11.916 : :Chapter 07
01:16:58.030 : :Chapter 08
01:29:01.336 : :Chapter 09

Меч отмщения 4 (Одинокий волк и его ребенок 4: Младенец в Коляске в Опасности) / Kozure Okami 4: Oya no kokoro ko no kokoro (Lone Wolf and Cub 4 - Babycart in Peril) (1972) BDRip-AVC

Меч отмщения 4 (Одинокий волк и его ребенок 4: Младенец в Коляске в Опасности) / Kozure Okami 4: Oya no kokoro ko no kokoro (Lone Wolf and Cub 4 - Babycart in Peril)Год выпуска: 1972
Производство: Япония, Toho Company
Жанр: Боевик, драма
Продолжительность: 01:20:58
Перевод: Авторский (одноголосый закадровый) С.Кузнецов + Любительский (двухголосый закадровый) R.G. Orient Extreme + Оригинал
Cубтитры: Русские, английские
Режиссер: Буити Саито
В ролях: Томисабуро Вакаяма, Ёити Хаяси, Мичи Азума, Акихиро Томикава, Асао Койкэ, Хироши Танака, Тацуо Эндо, Син Кисида
Описание: Его услуги стоят 500 золотых монет. Если он соглашается выполнить задание, участь его жертвы решена. Но новое задание Огами Итто очень опасно. Он должен убить Оюки, татуированную королеву боевых искусств.

Качество: BDRip-AVC
Формат: MKV
Видео кодек: H.264
Аудио кодек: AC3
Видео: AVC, 1024x436 (2.35:1), 23.976 fps, 1 450 Kbps (0.135 bit/pixel)
Аудио #1: AC3, 48.0 KHz, 2 ch, 192 Kbps, CBR AVO
Аудио #2: AC3, 48.0 KHz, 2 ch, 192 Kbps, CBR DVO
Аудио #3: AC3, 48.0 KHz, 2 ch, 192 Kbps, CBR Jap

MediaInfo

Общее
Уникальный идентификатор : 213956974548690561102567530935705363069 (0xA0F69D49EEEA6908ACF23E56AE3B627D)
Полное имя : I:Mech.otmscheniya.6.chastej.iz.6.1972-1974.x264.Blu-ray.Remux.1080p-MediaClubMech.otmscheniya.6.chastej.iz.6.1972-1974.x264.BDRip.AVC-MediaClubMech.otmscheniya.4.Mladenets.v.kolyaske.v.opasnosti.1972.x264.BDRip.AVC-MediaClub.mkv
Формат : Matroska
Версия формата : Version 2
Размер файла : 1,15 Гбайт
Продолжительность : 1 ч. 20 м.
Общий поток : 2029 Кбит/сек
Название фильма : Mech otmscheniya 4 (1972) BDRip-AVC -MediaClub=Викс=
Дата кодирования : UTC 2013-09-23 09:00:27
Программа кодирования : mkvmerge v4.2.0 ('No Talking') сборка от Jul 28 2010 18:38:23
Библиотека кодирования : libebml v1.0.0 + libmatroska v1.0.0
Видео
Идентификатор : 1
Формат : AVC
Формат/Информация : Advanced Video Codec
Профиль формата : [email protected]
Параметр CABAC формата : Да
Параметр ReFrames формата : 8 кадров
Идентификатор кодека : V_MPEG4/ISO/AVC
Продолжительность : 1 ч. 20 м.
Битрейт : 1450 Кбит/сек
Ширина : 1024 пикселя
Высота : 436 пикселей
Соотношение сторон : 2,35:1
Режим частоты кадров : Постоянный
Частота кадров : 23,976 кадра/сек
Цветовое пространство : YUV
Субдискретизация насыщенности : 4:2:0
Битовая глубина : 8 бит
Тип развёртки : Прогрессивная
Бит/(Пиксели*Кадры) : 0.135
Размер потока : 818 Мбайт (70%)
Библиотека кодирования : x264 core 133 r2334 a3ac64b
Настройки программы : cabac=1 / ref=8 / deblock=1:-2:-2 / analyse=0x3:0x113 / me=umh / subme=11 / psy=1 / psy_rd=1.00:0.00 / mixed_ref=1 / me_range=48 / chroma_me=1 / trellis=2 / 8x8dct=1 / cqm=0 / deadzone=21,11 / fast_pskip=0 / chroma_qp_offset=-2 / threads=6 / lookahead_threads=1 / sliced_threads=0 / nr=0 / decimate=0 / interlaced=0 / bluray_compat=0 / constrained_intra=0 / bframes=8 / b_pyramid=2 / b_adapt=2 / b_bias=0 / direct=3 / weightb=1 / open_gop=0 / weightp=2 / keyint=240 / keyint_min=23 / scenecut=40 / intra_refresh=0 / rc_lookahead=40 / rc=2pass / mbtree=0 / bitrate=1450 / ratetol=1.0 / qcomp=0.60 / qpmin=0 / qpmax=69 / qpstep=4 / cplxblur=20.0 / qblur=0.5 / vbv_maxrate=50000 / vbv_bufsize=52500 / nal_hrd=none / ip_ratio=1.40 / pb_ratio=1.30 / aq=1:0.80
Язык : Japanese
Default : Да
Forced : Нет
Аудио #1
Идентификатор : 2
Формат : AC-3
Формат/Информация : Audio Coding 3
Расширение режима : CM (complete main)
Параметр Endianness формата : Big
Идентификатор кодека : A_AC3
Продолжительность : 1 ч. 20 м.
Вид битрейта : Постоянный
Битрейт : 192 Кбит/сек
Каналы : 2 канала
Расположение каналов : Front: L R
Частота : 48,0 КГц
Битовая глубина : 16 бит
Метод сжатия : С потерями
Размер потока : 111 Мбайт (9%)
Заголовок : AP Kuznetsov
Язык : Russian
Default : Да
Forced : Нет
Аудио #2
Идентификатор : 3
Формат : AC-3
Формат/Информация : Audio Coding 3
Расширение режима : CM (complete main)
Параметр Endianness формата : Big
Идентификатор кодека : A_AC3
Продолжительность : 1 ч. 20 м.
Вид битрейта : Постоянный
Битрейт : 192 Кбит/сек
Каналы : 2 канала
Расположение каналов : Front: L R
Частота : 48,0 КГц
Битовая глубина : 16 бит
Метод сжатия : С потерями
Размер потока : 111 Мбайт (9%)
Заголовок : LD (R.G. Orient Extreme)
Язык : Russian
Default : Нет
Forced : Нет
Аудио #3
Идентификатор : 4
Формат : AC-3
Формат/Информация : Audio Coding 3
Расширение режима : CM (complete main)
Параметр Endianness формата : Big
Идентификатор кодека : A_AC3
Продолжительность : 1 ч. 20 м.
Вид битрейта : Постоянный
Битрейт : 192 Кбит/сек
Каналы : 2 канала
Расположение каналов : Front: L R
Частота : 48,0 КГц
Битовая глубина : 16 бит
Метод сжатия : С потерями
Размер потока : 111 Мбайт (9%)
Язык : Japanese
Default : Нет
Forced : Нет
Текст #1
Идентификатор : 5
Формат : UTF-8
Идентификатор кодека : S_TEXT/UTF8
Идентификатор кодека/Информация : UTF-8 Plain Text
Заголовок : Кeygeneral
Язык : Russian
Default : Да
Forced : Нет
Текст #2
Идентификатор : 6
Формат : UTF-8
Идентификатор кодека : S_TEXT/UTF8
Идентификатор кодека/Информация : UTF-8 Plain Text
Заголовок : Тоrа Аsаkurа
Язык : Russian
Default : Нет
Forced : Нет
Текст #3
Идентификатор : 7
Формат : UTF-8
Идентификатор кодека : S_TEXT/UTF8
Идентификатор кодека/Информация : UTF-8 Plain Text
Язык : English
Default : Нет
Forced : Нет
Меню
00:00:00.000 : :Chapter 01
00:03:38.301 : :Chapter 02
00:08:42.104 : :Chapter 03
00:17:54.406 : :Chapter 04
00:31:11.369 : :Chapter 05
00:38:16.460 : :Chapter 06
00:58:19.412 : :Chapter 07
01:09:48.976 : :Chapter 08
01:20:56.852 : :Chapter 09

Меч отмщения 5 (Одинокий волк и его ребенок 5: Младенец в Коляске на Земле Демонов) / Kozure Okami 5: Meifumado (Lone Wolf and Cub 5 - Babycart in the Land of Demons) (1973) BDRip-AVC

Меч отмщения 5 (Одинокий волк и его ребенок 5: Младенец в Коляске на Земле Демонов) / Kozure Okami 5: Meifumado (Lone Wolf and Cub 5 - Babycart in the Land of Demons)Год выпуска: 1973
Производство: Япония, Toho Company
Жанр: Боевик, драма
Продолжительность: 01:29:20
Перевод: Авторский (одноголосый закадровый) С.Кузнецов + Любительский (двухголосый закадровый) R.G. Orient Extreme + Оригинал
Cубтитры: Русские, английские
Режиссер: Кэндзи Мисуми
В ролях: Томисабуро Вакаяма, Митиё Окусу, Акихиро Томикава, Шинго Ямасиро, Томоми Сато, Акира Ямаути, Хидэдзи Отаки, Такэтоси Найто, Фудзио Суга, Рокко Тоура
Описание: Из-за предательства главы клана Ягю, князя Рецудо, погибает жена палача сёгуната Огами Итто, и теперь он вынужден стать бродячим самураем, ронином. Были попытки убить и самого Огами и его маленького сынишку, но героя не так то просто победить в честном бою. Теперь воины клана Ягю не знают сна и отдыха, разыскивая наемного убийцу и его маленького сына, которые колесят по стране в коляске. Вскоре по всей Японии распространится молва об Одиноком волке с ребенком, который сменил Путь самурая на Путь мести…

Качество: BDRip-AVC
Формат: MKV
Видео кодек: H.264
Аудио кодек: AC3
Видео: AVC, 1024x436 (2.35:1), 23.976 fps, 1 830 Kbps (0.171 bit/pixel)
Аудио #1: AC3, 48.0 KHz, 2 ch, 192 Kbps, CBR AVO
Аудио #2: AC3, 48.0 KHz, 2 ch, 192 Kbps, CBR DVO
Аудио #3: AC3, 48.0 KHz, 2 ch, 192 Kbps, CBR Jap

MediaInfo

Общее
Уникальный идентификатор : 243667102569910216407017650994265988485 (0xB75093B1B1AFC1BBA55C42B4C8241D85)
Полное имя : I:Mech.otmscheniya.6.chastej.iz.6.1972-1974.x264.Blu-ray.Remux.1080p-MediaClubMech.otmscheniya.6.chastej.iz.6.1972-1974.x264.BDRip.AVC-MediaClubMech.otmscheniya.5.Mladenets.v.kolyaske.na.zemle.demonov.1973.x264.BDRip.AVC-MediaClub.mkv
Формат : Matroska
Версия формата : Version 2
Размер файла : 1,50 Гбайт
Продолжительность : 1 ч. 29 м.
Общий поток : 2409 Кбит/сек
Название фильма : Mech otmscheniya 5 (1973) BDRip-AVC -MediaClub=Викс=
Дата кодирования : UTC 2013-09-23 09:08:41
Программа кодирования : mkvmerge v4.2.0 ('No Talking') сборка от Jul 28 2010 18:38:23
Библиотека кодирования : libebml v1.0.0 + libmatroska v1.0.0
Видео
Идентификатор : 1
Формат : AVC
Формат/Информация : Advanced Video Codec
Профиль формата : [email protected]
Параметр CABAC формата : Да
Параметр ReFrames формата : 8 кадров
Идентификатор кодека : V_MPEG4/ISO/AVC
Продолжительность : 1 ч. 29 м.
Битрейт : 1830 Кбит/сек
Ширина : 1024 пикселя
Высота : 436 пикселей
Соотношение сторон : 2,35:1
Режим частоты кадров : Постоянный
Частота кадров : 23,976 кадра/сек
Цветовое пространство : YUV
Субдискретизация насыщенности : 4:2:0
Битовая глубина : 8 бит
Тип развёртки : Прогрессивная
Бит/(Пиксели*Кадры) : 0.171
Размер потока : 1,11 Гбайт (74%)
Библиотека кодирования : x264 core 133 r2334 a3ac64b
Настройки программы : cabac=1 / ref=8 / deblock=1:-2:-2 / analyse=0x3:0x113 / me=umh / subme=11 / psy=1 / psy_rd=1.00:0.00 / mixed_ref=1 / me_range=48 / chroma_me=1 / trellis=2 / 8x8dct=1 / cqm=0 / deadzone=21,11 / fast_pskip=0 / chroma_qp_offset=-2 / threads=6 / lookahead_threads=1 / sliced_threads=0 / nr=0 / decimate=0 / interlaced=0 / bluray_compat=0 / constrained_intra=0 / bframes=8 / b_pyramid=2 / b_adapt=2 / b_bias=0 / direct=3 / weightb=1 / open_gop=0 / weightp=2 / keyint=240 / keyint_min=23 / scenecut=40 / intra_refresh=0 / rc_lookahead=40 / rc=2pass / mbtree=0 / bitrate=1830 / ratetol=1.0 / qcomp=0.60 / qpmin=0 / qpmax=69 / qpstep=4 / cplxblur=20.0 / qblur=0.5 / vbv_maxrate=50000 / vbv_bufsize=52500 / nal_hrd=none / ip_ratio=1.40 / pb_ratio=1.30 / aq=1:0.80
Язык : Japanese
Default : Да
Forced : Нет
Аудио #1
Идентификатор : 2
Формат : AC-3
Формат/Информация : Audio Coding 3
Расширение режима : CM (complete main)
Параметр Endianness формата : Big
Идентификатор кодека : A_AC3
Продолжительность : 1 ч. 29 м.
Вид битрейта : Постоянный
Битрейт : 192 Кбит/сек
Каналы : 2 канала
Расположение каналов : Front: L R
Частота : 48,0 КГц
Битовая глубина : 16 бит
Метод сжатия : С потерями
Размер потока : 123 Мбайт (8%)
Заголовок : AP Kuznetsov
Язык : Russian
Default : Да
Forced : Нет
Аудио #2
Идентификатор : 3
Формат : AC-3
Формат/Информация : Audio Coding 3
Расширение режима : CM (complete main)
Параметр Endianness формата : Big
Идентификатор кодека : A_AC3
Продолжительность : 1 ч. 29 м.
Вид битрейта : Постоянный
Битрейт : 192 Кбит/сек
Каналы : 2 канала
Расположение каналов : Front: L R
Частота : 48,0 КГц
Битовая глубина : 16 бит
Метод сжатия : С потерями
Размер потока : 123 Мбайт (8%)
Заголовок : LD (R.G. Orient Extreme)
Язык : Russian
Default : Нет
Forced : Нет
Аудио #3
Идентификатор : 4
Формат : AC-3
Формат/Информация : Audio Coding 3
Расширение режима : CM (complete main)
Параметр Endianness формата : Big
Идентификатор кодека : A_AC3
Продолжительность : 1 ч. 29 м.
Вид битрейта : Постоянный
Битрейт : 192 Кбит/сек
Каналы : 2 канала
Расположение каналов : Front: L R
Частота : 48,0 КГц
Битовая глубина : 16 бит
Метод сжатия : С потерями
Размер потока : 123 Мбайт (8%)
Язык : Japanese
Default : Нет
Forced : Нет
Текст #1
Идентификатор : 5
Формат : UTF-8
Идентификатор кодека : S_TEXT/UTF8
Идентификатор кодека/Информация : UTF-8 Plain Text
Заголовок : Кeygeneral
Язык : Russian
Default : Да
Forced : Нет
Текст #2
Идентификатор : 6
Формат : UTF-8
Идентификатор кодека : S_TEXT/UTF8
Идентификатор кодека/Информация : UTF-8 Plain Text
Заголовок : Тоrа Аsаkurа
Язык : Russian
Default : Нет
Forced : Нет
Текст #3
Идентификатор : 7
Формат : UTF-8
Идентификатор кодека : S_TEXT/UTF8
Идентификатор кодека/Информация : UTF-8 Plain Text
Язык : English
Default : Нет
Forced : Нет
Меню
00:00:00.000 : :Chapter 01
00:01:46.481 : :Chapter 02
00:23:45.382 : :Chapter 03
00:29:34.439 : :Chapter 04
00:46:41.048 : :Chapter 05
00:52:28.061 : :Chapter 06
01:04:21.732 : :Chapter 07
01:12:17.499 : :Chapter 08
01:29:19.354 : :Chapter 09

Меч отмщения 6 (Одинокий волк и его ребенок 6: Белые Небеса Ада) / Kozure Okami 6: Jigoku e ikuzo! Daigoro (Lone Wolf and Cub 6 - White Heaven in Hell) (1974) BDRip-AVC

Меч отмщения 6 (Одинокий волк и его ребенок 6: Белые Небеса Ада) / Kozure Okami 6: Jigoku e ikuzo! Daigoro (Lone Wolf and Cub 6 - White Heaven in Hell) Год выпуска: 1974
Производство: Япония, Katsu Production Co. Ltd.
Жанр: Боевик, драма
Продолжительность: 01:23:35
Перевод: Авторский (одноголосый закадровый) С.Кузнецов+ Оригинал
Cубтитры: Русские, английские
Режиссер: Йошиюки Курода
В ролях: Томисабуро Вакаяма, Митиё Окусу, Акихиро Томикава, Шинго Ямасиро, Томоми Сато, Акира Ямаути, Хидэдзи Отаки, Такэтоси Найто, Фудзио Суга, Рокко Тоура
Описание: В начале шестого фильма наш герой Ито Огами по прозвищу Одинокий Волк везет свою коляску-пулемет по глубоким горным снегам. А в это время сенатор приказывает главе семейного клана Ягуйи убить Ито Огами и его сына, чтобы смыть свой позор. Трое сыновей погибли в предыдущих фильмах, пытаясь это совершить. Но в семье Ягуий есть дочь Каори, владеющая оружием лучше трех своих братьев. Глава семьи Ягуйи дает клятву, что Ито будет убит. Сделать это должна Каори, девушка безусловно одаренная и симпатичная. Она должна отомстить за смерть братьев. Ито же собирается в этом фильме закончить свою месть — уничтожить сегуна и всю семью Ягуйи. Поэтому он берет с собой и сына — Дайагоро. Чем это закончится, вы узнаете, посмотрев шестой фильм японского сериала. Как и предыдущие, этот эпизод интересен не только поединками, но и показом быта, красивых обычаев старой Японии. (М. Иванов)

Качество: BDRip-AVC
Формат: MKV
Видео кодек: H.264
Аудио кодек: AC3
Видео: AVC, 1024x428 (2.35:1), 23.976 fps, 1 350 Kbps (0.128 bit/pixel)
Аудио #1: AC3, 48.0 KHz, 2 ch, 192 Kbps, CBR AVO
Аудио #2: AC3, 48.0 KHz, 2 ch, 192 Kbps, CBR Jap

MediaInfo

Общее
Уникальный идентификатор : 188523381911216898299226125912296711403 (0x8DD4485B5B60C56A8E157449D400E4EB)
Полное имя : I:Mech.otmscheniya.6.chastej.iz.6.1972-1974.x264.Blu-ray.Remux.1080p-MediaClubMech.otmscheniya.6.chastej.iz.6.1972-1974.x264.BDRip.AVC-MediaClubMech.otmscheniya.6.Belye.nebesa.ada.1974.x264.BDRip.AVC-MediaClub.mkv
Формат : Matroska
Версия формата : Version 2
Размер файла : 1,01 Гбайт
Продолжительность : 1 ч. 23 м.
Общий поток : 1736 Кбит/сек
Название фильма : Mech otmscheniya 6 (1974) BDRip-AVC -MediaClub=Викс=
Дата кодирования : UTC 2013-09-23 09:17:56
Программа кодирования : mkvmerge v4.2.0 ('No Talking') сборка от Jul 28 2010 18:38:23
Библиотека кодирования : libebml v1.0.0 + libmatroska v1.0.0
Видео
Идентификатор : 1
Формат : AVC
Формат/Информация : Advanced Video Codec
Профиль формата : [email protected]
Параметр CABAC формата : Да
Параметр ReFrames формата : 8 кадров
Идентификатор кодека : V_MPEG4/ISO/AVC
Продолжительность : 1 ч. 23 м.
Битрейт : 1350 Кбит/сек
Ширина : 1024 пикселя
Высота : 428 пикселей
Соотношение сторон : 2,40:1
Режим частоты кадров : Постоянный
Частота кадров : 23,976 кадра/сек
Цветовое пространство : YUV
Субдискретизация насыщенности : 4:2:0
Битовая глубина : 8 бит
Тип развёртки : Прогрессивная
Бит/(Пиксели*Кадры) : 0.128
Размер потока : 788 Мбайт (76%)
Библиотека кодирования : x264 core 133 r2334 a3ac64b
Настройки программы : cabac=1 / ref=8 / deblock=1:-2:-2 / analyse=0x3:0x113 / me=umh / subme=11 / psy=1 / psy_rd=1.00:0.00 / mixed_ref=1 / me_range=48 / chroma_me=1 / trellis=2 / 8x8dct=1 / cqm=0 / deadzone=21,11 / fast_pskip=0 / chroma_qp_offset=-2 / threads=6 / lookahead_threads=1 / sliced_threads=0 / nr=0 / decimate=0 / interlaced=0 / bluray_compat=0 / constrained_intra=0 / bframes=8 / b_pyramid=2 / b_adapt=2 / b_bias=0 / direct=3 / weightb=1 / open_gop=0 / weightp=2 / keyint=240 / keyint_min=23 / scenecut=40 / intra_refresh=0 / rc_lookahead=40 / rc=2pass / mbtree=0 / bitrate=1350 / ratetol=1.0 / qcomp=0.60 / qpmin=0 / qpmax=69 / qpstep=4 / cplxblur=20.0 / qblur=0.5 / vbv_maxrate=50000 / vbv_bufsize=52500 / nal_hrd=none / ip_ratio=1.40 / pb_ratio=1.30 / aq=1:0.80
Язык : Japanese
Default : Да
Forced : Нет
Аудио #1
Идентификатор : 2
Формат : AC-3
Формат/Информация : Audio Coding 3
Расширение режима : CM (complete main)
Параметр Endianness формата : Big
Идентификатор кодека : A_AC3
Продолжительность : 1 ч. 23 м.
Вид битрейта : Постоянный
Битрейт : 192 Кбит/сек
Каналы : 2 канала
Расположение каналов : Front: L R
Частота : 48,0 КГц
Битовая глубина : 16 бит
Метод сжатия : С потерями
Размер потока : 115 Мбайт (11%)
Заголовок : AP Kuznetsov
Язык : Russian
Default : Да
Forced : Нет
Аудио #2
Идентификатор : 3
Формат : AC-3
Формат/Информация : Audio Coding 3
Расширение режима : CM (complete main)
Параметр Endianness формата : Big
Идентификатор кодека : A_AC3
Продолжительность : 1 ч. 23 м.
Вид битрейта : Постоянный
Битрейт : 192 Кбит/сек
Каналы : 2 канала
Расположение каналов : Front: L R
Частота : 48,0 КГц
Битовая глубина : 16 бит
Метод сжатия : С потерями
Размер потока : 115 Мбайт (11%)
Язык : Japanese
Default : Нет
Forced : Нет
Текст #1
Идентификатор : 4
Формат : UTF-8
Идентификатор кодека : S_TEXT/UTF8
Идентификатор кодека/Информация : UTF-8 Plain Text
Заголовок : Keygeneral
Язык : Russian
Default : Да
Forced : Нет
Текст #2
Идентификатор : 5
Формат : UTF-8
Идентификатор кодека : S_TEXT/UTF8
Идентификатор кодека/Информация : UTF-8 Plain Text
Заголовок : miky_m
Язык : Russian
Default : Нет
Forced : Нет
Текст #3
Идентификатор : 6
Формат : UTF-8
Идентификатор кодека : S_TEXT/UTF8
Идентификатор кодека/Информация : UTF-8 Plain Text
Язык : English
Default : Нет
Forced : Нет
Меню
00:00:00.000 : :Chapter 01
00:02:49.878 : :Chapter 02
00:09:18.057 : :Chapter 03
00:20:25.933 : :Chapter 04
00:29:25.472 : :Chapter 05
00:46:13.896 : :Chapter 06
01:02:24.657 : :Chapter 07
01:09:45.556 : :Chapter 08
01:23:34.009 : :Chapter 09
[Профиль]  [ЛС] 
Показать сообщения:    
Ответить на тему

Текущее время: 03-Дек 22:44

Часовой пояс: UTC + 3



Вы не можете начинать темы
Вы не можете отвечать на сообщения
Вы не можете редактировать свои сообщения
Вы не можете удалять свои сообщения
Вы не можете голосовать в опросах
Вы не можете прикреплять файлы к сообщениям
Вы не можете скачивать файлы