Такси 1-4 / Taxi 1-4 (Жерар Пирес, Жерар Кравчик) [1998-2007 г., Комедия, BDRip-AVC] Dub

Ответить на тему
Статистика раздачи [Обновить пиров]
Скачал: [ 1 ]
 
   
 
 
Автор
Сообщение

mihis ®

Стаж: 2 года 1 месяц

Сообщений: 221

Создавать темы 29-Окт-2014 21:24

[Цитировать] 

Такси 1-4 / Taxi 1-4Квадрология / Quadrilogy

Такси / Taxi (1998) BDRip-AVC

Такси / Taxi

Год выпуска: 1998
Производство: Франция
Жанр: Комедия
Продолжительность: 01:29:50
Перевод: Профессиональный (полное дублирование) + Оригинал
Cубтитры: Русские, английские
Режиссер: Жерар Пирес
В ролях:
Сами Насери, Фредерик Дифенталь, Марион Котийяр, Мануэла Гурари, Эмма Сьоберг, Бернар Фарси, Жорж Нери, Гай Нгуен, Морис Мурсия, Сабина Бэйл
Описание:
Молодой таксист Даниэль помешан на быстрой езде. Как ураган проносится он по извилистым улицам Марселя на своем мощном ревущем звере «Пежо», пугая пассажиров и прохожих. Неподкупный полицейский Эмильен вынуждает его помочь в поимке банды грабителей, ускользающих от полиции на своих неуловимых «Мерседесах». И до самого конца не ясно, кто же сможет удержаться на крутом вираже…

Качество: BDRip-AVC
Формат: MKV
Видео кодек: H.264
Аудио кодек: AC3
Видео: AVC, 1024x436 (2.35:1), 23.976 fps, 3 500 Kbps (0.327 bit/pixel)
Аудио: AC-3, 48.0 KHz, 6 ch, 448 Kbps Rus,Fra

MediaInfo

General
Unique ID : 234021975689740373366370527273442639458 (0xB00EFE3958F531789F87452BCD3C7E62)
Complete name : D:Taksi.1998-2007.x264.BDRip.(AVC).fanatus1.Taksi.1998.x264.BDRip.(AVC).fanatus.mkv
Format : Matroska
Format version : Version 2
File size : 2.76 GiB
Duration : 1h 29mn
Overall bit rate : 4 396 Kbps
Movie name : Taxi (1998) - fanatus
Encoded date : UTC 2013-05-29 17:38:58
Writing application : mkvmerge v3.4.0 ('Rapunzel') сборка от May 15 2010 09:38:20
Writing library : libebml v0.8.0 + libmatroska v0.9.0
Video
ID : 1
Format : AVC
Format/Info : Advanced Video Codec
Format profile : [email protected]
Format settings, CABAC : Yes
Format settings, ReFrames : 10 frames
Codec ID : V_MPEG4/ISO/AVC
Duration : 1h 29mn
Bit rate : 3 500 Kbps
Width : 1 024 pixels
Height : 436 pixels
Display aspect ratio : 2.35:1
Frame rate : 23.976 fps
Color space : YUV
Chroma subsampling : 4:2:0
Bit depth : 8 bits
Scan type : Progressive
Bits/(Pixel*Frame) : 0.327
Stream size : 2.14 GiB (78%)
Title : Taxi (1998)
Writing library : x264 core 132 r2323+704+51 d571b1c tMod [[email protected] X86]
Encoding settings : cabac=1 / ref=10 / deblock=1:-3:-3 / analyse=0x3:0x113 / me=tesa / subme=11 / psy=1 / fade_compensate=0.00 / psy_rd=1.05:0.25 / mixed_ref=1 / me_range=48 / chroma_me=1 / trellis=2 / 8x8dct=1 / cqm=0 / deadzone=21,11 / fast_pskip=0 / chroma_qp_offset=-4 / threads=16 / lookahead_threads=3 / sliced_threads=0 / nr=0 / decimate=0 / interlaced=0 / bluray_compat=0 / constrained_intra=0 / fgo=0 / bframes=10 / b_pyramid=2 / b_adapt=2 / b_bias=0 / direct=3 / weightb=1 / open_gop=0 / weightp=2 / keyint=240 / keyint_min=23 / scenecut=40 / intra_refresh=0 / rc_lookahead=240 / rc=2pass / mbtree=1 / bitrate=3500 / ratetol=1.0 / qcomp=0.70 / qpmin=0 / qpmax=69 / qpstep=4 / cplxblur=20.0 / qblur=0.5 / vbv_maxrate=50000 / vbv_bufsize=62500 / nal_hrd=none / ip_ratio=1.30 / aq=4:0.70 / aq-sensitivity=10.00 / aq-factor=1.00:1.00:1.00 / aq2=0 / aq3=0 / zones=122787,129239,q=33
Language : French
Default : Yes
Forced : No
Audio #1
ID : 2
Format : AC-3
Format/Info : Audio Coding 3
Mode extension : CM (complete main)
Format settings, Endianness : Big
Codec ID : A_AC3
Duration : 1h 29mn
Bit rate mode : Constant
Bit rate : 448 Kbps
Channel(s) : 6 channels
Channel positions : Front: L C R, Side: L R, LFE
Sampling rate : 48.0 KHz
Bit depth : 16 bits
Compression mode : Lossy
Stream size : 288 MiB (10%)
Title : Dub
Language : Russian
Default : Yes
Forced : No
Audio #2
ID : 3
Format : AC-3
Format/Info : Audio Coding 3
Mode extension : CM (complete main)
Format settings, Endianness : Big
Codec ID : A_AC3
Duration : 1h 29mn
Bit rate mode : Constant
Bit rate : 448 Kbps
Channel(s) : 6 channels
Channel positions : Front: L C R, Side: L R, LFE
Sampling rate : 48.0 KHz
Bit depth : 16 bits
Compression mode : Lossy
Stream size : 288 MiB (10%)
Title : Original
Language : French
Default : No
Forced : No
Text #1
ID : 4
Format : UTF-8
Codec ID : S_TEXT/UTF8
Codec ID/Info : UTF-8 Plain Text
Language : Russian
Default : No
Forced : No
Text #2
ID : 5
Format : UTF-8
Codec ID : S_TEXT/UTF8
Codec ID/Info : UTF-8 Plain Text
Language : English
Default : No
Forced : No
Menu
00:00:00.000 : :Chapter 01
00:07:14.559 : :Chapter 02
00:13:02.364 : :Chapter 03
00:17:40.768 : :Chapter 04
00:21:46.013 : :Chapter 05
00:28:42.887 : :Chapter 06
00:34:32.779 : :Chapter 07
00:38:56.333 : :Chapter 08
00:47:43.569 : :Chapter 09
00:53:46.348 : :Chapter 10
00:58:44.479 : :Chapter 11
01:04:58.561 : :Chapter 12
01:09:08.769 : :Chapter 13
01:11:46.093 : :Chapter 14
01:21:48.278 : :Chapter 15
01:25:22.617 : :Chapter 16
01:29:50.301 : :Chapter 17

Такси 2 / Taxi 2 (2000) BDRip-AVC

Такси 2 / Taxi 2

Год выпуска: 2000
Производство: Франция
Жанр: Комедия
Продолжительность: 01:28:25
Перевод: Профессиональный (полное дублирование) + Оригинал
Cубтитры: Русские, английские
Режиссер: Жерар Кравчик
В ролях:
Сами Насери, Фредерик Дифенталь, Марион Котийяр, Эмма Сьоберг, Бернар Фарси, Жан-Кристоф Буве, Фредерик Тирмон, Марк Фор, Хирата Харухико, Цую Симидзу
Описание:
Во Францию прибывает министр обороны Японии. Цель его визита – ознакомится с французским опытом борьбы с терроризмом и подписать "контракт века" о взаимном сотрудничестве. Неожиданно во время показательных выступлений французской полиции, министра обороны похищает гангстерская группировка "Якудза", желающего сорвать заключение наиважнейшего контракта. Даниэль Эмильен отправляются на поиски высокого гостя. В дело вступает уже хорошо знакомое такси…

Качество: BDRip-AVC
Формат: MKV
Видео кодек: H.264
Аудио кодек: AC3
Видео: AVC, 1024x436 (2.35:1), 24.000 fps, 3 500 Kbps (0.327 bit/pixel)
Аудио: AC-3, 48.0 KHz, 6 ch, 448 Kbps Rus,Fra

MediaInfo

General
Unique ID : 181858019035563205469587846300363146048 (0x88D094984A1D56E8BFD5C6D0F7004340)
Complete name : D:Taksi.1998-2007.x264.BDRip.(AVC).fanatus2.Taksi.2.2000.x264.BDRip.(AVC).fanatus.mkv
Format : Matroska
Format version : Version 2
File size : 2.71 GiB
Duration : 1h 28mn
Overall bit rate : 4 395 Kbps
Movie name : Taxi 2 (2000) - fanatus
Encoded date : UTC 2013-05-29 18:22:52
Writing application : mkvmerge v3.4.0 ('Rapunzel') сборка от May 15 2010 09:38:20
Writing library : libebml v0.8.0 + libmatroska v0.9.0
Video
ID : 1
Format : AVC
Format/Info : Advanced Video Codec
Format profile : [email protected]
Format settings, CABAC : Yes
Format settings, ReFrames : 10 frames
Codec ID : V_MPEG4/ISO/AVC
Duration : 1h 28mn
Bit rate : 3 500 Kbps
Width : 1 024 pixels
Height : 436 pixels
Display aspect ratio : 2.35:1
Frame rate : 24.000 fps
Color space : YUV
Chroma subsampling : 4:2:0
Bit depth : 8 bits
Scan type : Progressive
Bits/(Pixel*Frame) : 0.327
Stream size : 2.11 GiB (78%)
Title : Taxi 2 (2000)
Writing library : x264 core 132 r2323+704+51 d571b1c tMod [[email protected] X86]
Encoding settings : cabac=1 / ref=10 / deblock=1:-3:-3 / analyse=0x3:0x113 / me=tesa / subme=11 / psy=1 / fade_compensate=0.00 / psy_rd=1.00:0.15 / mixed_ref=1 / me_range=48 / chroma_me=1 / trellis=2 / 8x8dct=1 / cqm=0 / deadzone=21,11 / fast_pskip=0 / chroma_qp_offset=-3 / threads=16 / lookahead_threads=3 / sliced_threads=0 / nr=0 / decimate=0 / interlaced=0 / bluray_compat=0 / constrained_intra=0 / fgo=0 / bframes=10 / b_pyramid=2 / b_adapt=2 / b_bias=0 / direct=3 / weightb=1 / open_gop=0 / weightp=2 / keyint=240 / keyint_min=24 / scenecut=40 / intra_refresh=0 / rc_lookahead=240 / rc=2pass / mbtree=0 / bitrate=3500 / ratetol=1.0 / qcomp=0.65 / qpmin=0 / qpmax=69 / qpstep=4 / cplxblur=20.0 / qblur=0.5 / vbv_maxrate=50000 / vbv_bufsize=62500 / nal_hrd=none / ip_ratio=1.30 / pb_ratio=1.30 / aq=4:0.80 / aq-sensitivity=10.00 / aq-factor=1.00:1.00:1.00 / aq2=0 / aq3=0 / zones=118840,127320,q=33
Language : French
Default : Yes
Forced : No
Audio #1
ID : 2
Format : AC-3
Format/Info : Audio Coding 3
Mode extension : CM (complete main)
Format settings, Endianness : Big
Codec ID : A_AC3
Duration : 1h 28mn
Bit rate mode : Constant
Bit rate : 448 Kbps
Channel(s) : 6 channels
Channel positions : Front: L C R, Side: L R, LFE
Sampling rate : 48.0 KHz
Bit depth : 16 bits
Compression mode : Lossy
Stream size : 283 MiB (10%)
Title : Dub
Language : Russian
Default : Yes
Forced : No
Audio #2
ID : 3
Format : AC-3
Format/Info : Audio Coding 3
Mode extension : CM (complete main)
Format settings, Endianness : Big
Codec ID : A_AC3
Duration : 1h 28mn
Bit rate mode : Constant
Bit rate : 448 Kbps
Channel(s) : 6 channels
Channel positions : Front: L C R, Side: L R, LFE
Sampling rate : 48.0 KHz
Bit depth : 16 bits
Compression mode : Lossy
Stream size : 283 MiB (10%)
Title : Original
Language : French
Default : No
Forced : No
Text #1
ID : 4
Format : UTF-8
Codec ID : S_TEXT/UTF8
Codec ID/Info : UTF-8 Plain Text
Language : Russian
Default : No
Forced : No
Text #2
ID : 5
Format : UTF-8
Codec ID : S_TEXT/UTF8
Codec ID/Info : UTF-8 Plain Text
Language : English
Default : No
Forced : No
Menu
00:00:00.000 : en:Chapter 01
00:07:29.750 : en:Chapter 02
00:14:43.500 : en:Chapter 03
00:23:18.416 : en:Chapter 04
00:31:25.333 : en:Chapter 05
00:39:41.000 : en:Chapter 06
00:46:52.791 : en:Chapter 07
00:54:17.083 : en:Chapter 08
01:01:14.125 : en:Chapter 09
01:08:10.333 : en:Chapter 10
01:15:46.083 : en:Chapter 11
01:23:34.125 : en:Chapter 12
01:28:24.125 : en:Chapter 13

Такси 3 / Taxi 3 (2003) BDRip-AVC

Такси 3 / Taxi 3

Год выпуска: 2003
Производство: Франция
Жанр: Комедия
Продолжительность: 01:27:24
Перевод: Профессиональный (полное дублирование) + Оригинал
Cубтитры: Русские, английские
Режиссер: Жерар Кравчик
В ролях:
Сами Насери, Фредерик Дифенталь, Бернар Фарси, Бай Лин, Эмма Сьоберг, Марион Котийяр, Эдуард Монтут, Жан-Кристоф Буве, Леон-Пьер Мондини, Бернард Льопис
Описание:
Марсель вновь в опасности! В канун Рождества городские банки грабят переодетые в Санта-Клаусов преступники. Полицейские проверяют всех подозрительных дедов Морозов, но не могут найти среди них грабителей. Тогда шеф марсельской полиции Жибер предлагает провести крупномасштабную операцию, чтобы захватить преступников в их логове. Однако вряд ли она увенчалась бы успехом, если бы не таксист-частник Даниэль и его друг, полицейский Эмильен. Именно с их помощью была разоблачена китайская журналистка Ку, передававшая сведения "Санта-Клаусам". Грабители пытаются через Альпы перебраться в Швейцарию, но марсельские копы, возглавляемые Даниэлем и Эмильеном, преследуют их по пятам...

Качество: BDRip-AVC
Формат: MKV
Видео кодек: H.264
Аудио кодек: AC3
Видео: AVC, 1024x436 (2.35:1), 24.000 fps, 3 500 Kbps (0.327 bit/pixel)
Аудио: AC-3, 48.0 KHz, 6 ch, 448 Kbps Rus,Fra

MediaInfo

General
Unique ID : 178595129858455317715445273753040684931 (0x865C2BBCEE6897AD85CB7ECAAD378783)
Complete name : D:Taksi.1998-2007.x264.BDRip.(AVC).fanatus3.Taksi.3.2003.x264.BDRip.(AVC).fanatus.mkv
Format : Matroska
Format version : Version 2
File size : 2.68 GiB
Duration : 1h 27mn
Overall bit rate : 4 394 Kbps
Movie name : Taxi 3 (2003) - fanatus
Encoded date : UTC 2013-05-29 18:54:56
Writing application : mkvmerge v3.4.0 ('Rapunzel') сборка от May 15 2010 09:38:20
Writing library : libebml v0.8.0 + libmatroska v0.9.0
Video
ID : 1
Format : AVC
Format/Info : Advanced Video Codec
Format profile : [email protected]
Format settings, CABAC : Yes
Format settings, ReFrames : 10 frames
Codec ID : V_MPEG4/ISO/AVC
Duration : 1h 27mn
Bit rate : 3 500 Kbps
Width : 1 024 pixels
Height : 436 pixels
Display aspect ratio : 2.35:1
Frame rate : 24.000 fps
Color space : YUV
Chroma subsampling : 4:2:0
Bit depth : 8 bits
Scan type : Progressive
Bits/(Pixel*Frame) : 0.327
Stream size : 2.08 GiB (78%)
Title : Taxi 3 (2003)
Writing library : x264 core 132 r2323+704+51 d571b1c tMod [[email protected] X86]
Encoding settings : cabac=1 / ref=10 / deblock=1:-3:-3 / analyse=0x3:0x113 / me=tesa / subme=11 / psy=1 / fade_compensate=0.00 / psy_rd=1.05:0.10 / mixed_ref=1 / me_range=48 / chroma_me=1 / trellis=2 / 8x8dct=1 / cqm=0 / deadzone=21,11 / fast_pskip=0 / chroma_qp_offset=-3 / threads=16 / lookahead_threads=3 / sliced_threads=0 / nr=0 / decimate=0 / interlaced=0 / bluray_compat=0 / constrained_intra=0 / fgo=0 / bframes=10 / b_pyramid=2 / b_adapt=2 / b_bias=0 / direct=3 / weightb=1 / open_gop=0 / weightp=2 / keyint=240 / keyint_min=24 / scenecut=40 / intra_refresh=0 / rc_lookahead=240 / rc=2pass / mbtree=0 / bitrate=3500 / ratetol=1.0 / qcomp=0.65 / qpmin=0 / qpmax=69 / qpstep=4 / cplxblur=20.0 / qblur=0.5 / vbv_maxrate=50000 / vbv_bufsize=62500 / nal_hrd=none / ip_ratio=1.30 / pb_ratio=1.30 / aq=4:0.80 / aq-sensitivity=10.00 / aq-factor=1.00:1.00:1.00 / aq2=0 / aq3=0 / zones=117488,125854,q=33
Language : French
Default : Yes
Forced : No
Audio #1
ID : 2
Format : AC-3
Format/Info : Audio Coding 3
Mode extension : CM (complete main)
Format settings, Endianness : Big
Codec ID : A_AC3
Duration : 1h 27mn
Bit rate mode : Constant
Bit rate : 448 Kbps
Channel(s) : 6 channels
Channel positions : Front: L C R, Side: L R, LFE
Sampling rate : 48.0 KHz
Bit depth : 16 bits
Compression mode : Lossy
Stream size : 280 MiB (10%)
Title : Dub
Language : Russian
Default : Yes
Forced : No
Audio #2
ID : 3
Format : AC-3
Format/Info : Audio Coding 3
Mode extension : CM (complete main)
Format settings, Endianness : Big
Codec ID : A_AC3
Duration : 1h 27mn
Bit rate mode : Constant
Bit rate : 448 Kbps
Channel(s) : 6 channels
Channel positions : Front: L C R, Side: L R, LFE
Sampling rate : 48.0 KHz
Bit depth : 16 bits
Compression mode : Lossy
Stream size : 280 MiB (10%)
Title : Original
Language : French
Default : No
Forced : No
Text #1
ID : 4
Format : UTF-8
Codec ID : S_TEXT/UTF8
Codec ID/Info : UTF-8 Plain Text
Language : Russian
Default : No
Forced : No
Text #2
ID : 5
Format : UTF-8
Codec ID : S_TEXT/UTF8
Codec ID/Info : UTF-8 Plain Text
Language : English
Default : No
Forced : No
Menu
00:00:00.000 : en:Chapter 01
00:08:29.833 : en:Chapter 02
00:15:59.833 : en:Chapter 03
00:23:21.000 : en:Chapter 04
00:30:43.333 : en:Chapter 05
00:39:43.166 : en:Chapter 06
00:47:47.500 : en:Chapter 07
00:55:08.916 : en:Chapter 08
01:03:00.666 : en:Chapter 09
01:10:09.291 : en:Chapter 10
01:17:52.125 : en:Chapter 11
01:21:35.708 : en:Chapter 12
01:27:15.708 : en:Chapter 13

Такси 4 / Taxi 4 (2007) BDRip-AVC

Такси 4 / Taxi 4

Год выпуска: 2007
Производство: Франция
Жанр: Комедия
Продолжительность: 01:37:27
Перевод: Профессиональный (полное дублирование) + Оригинал
Cубтитры: Русские, английские
Режиссер: Жерар Кравчик
В ролях:
Сами Насери, Фредерик Дифенталь, Бернар Фарси, Эмма Сьоберг, Эдуард Монтаут, Жан-Кристоф Буве, Жан-Люк Кучар, Франсуа Дамиенс, Морад Зегвенди, Дрисс Спиноза
Описание:
Спустя пять лет после событий третьего фильма, Даниэль и Эмильен снова вместе и мы вновь имеем возможность наблюдать за их приключениями на этот раз на Лазурном берегу.Полицейский комиссариат лихорадит. В Марсель из Бельгии присылают опаснейшего преступника, который на следующий день должен быть переправлен в желтую жаркую Африку на праведный суд. Несмотря на то, что бандита транспортируют и содержат под стражей в наряде аквалангиста, подозрительно напоминающем смирительную рубашку Доктора Лектера из фильма «Молчание ягнят», ему удается обмануть бдительность копов, выйти из допра и даже организовать грабеж банка в Монте-Карло. Правда, в качестве спецагента в банде Бельгийца принимает непосредственное участие специалист контрразведки, по совместительству - жена Эмильена так что у спецслужб все под контролем. Но, тем не менее, тотальное разгильдяйство и глупость жандармов дает возможность гангстерам потрепыхаться и повеселить зрителей картинками из блатной жизни марсельско-бельгийского дна. Задержать веселых убийц будет не так-то просто. Правда, правосудие все-таки восторжествует.

Режиссерская версия, на не переведенные места есть субтиры.
Качество: BDRip-AVC
Формат: MKV
Видео кодек: H.264
Аудио кодек: AC3
Видео: AVC, 1024x436 (2.35:1), 23.976 fps, 3 500 Kbps (0.327 bit/pixel)
Аудио: AC-3, 48.0 KHz, 6 ch, 448 Kbps Rus,Fra

MediaInfo

General
Unique ID : 183543341515676957374055375737657556396 (0x8A15296890C73878AF7518C98878FDAC)
Complete name : D:Taksi.1998-2007.x264.BDRip.(AVC).fanatus4.Taksi.4.(Rezhisserskaja.versija).2007.x264.BDRip.(AVC).fanatus.mkv
Format : Matroska
Format version : Version 2
File size : 2.99 GiB
Duration : 1h 37mn
Overall bit rate : 4 396 Kbps
Movie name : Taxi 4 (2007) - fanatus
Encoded date : UTC 2013-05-29 16:14:15
Writing application : mkvmerge v3.4.0 ('Rapunzel') сборка от May 15 2010 09:38:20
Writing library : libebml v0.8.0 + libmatroska v0.9.0
Video
ID : 1
Format : AVC
Format/Info : Advanced Video Codec
Format profile : [email protected]
Format settings, CABAC : Yes
Format settings, ReFrames : 10 frames
Codec ID : V_MPEG4/ISO/AVC
Duration : 1h 37mn
Bit rate : 3 500 Kbps
Width : 1 024 pixels
Height : 436 pixels
Display aspect ratio : 2.35:1
Frame rate : 23.976 fps
Color space : YUV
Chroma subsampling : 4:2:0
Bit depth : 8 bits
Scan type : Progressive
Bits/(Pixel*Frame) : 0.327
Stream size : 2.32 GiB (78%)
Title : Taxi 4 (2007)
Writing library : x264 core 132 r2323+704+51 d571b1c tMod [[email protected] X86]
Encoding settings : cabac=1 / ref=10 / deblock=1:-3:-3 / analyse=0x3:0x113 / me=tesa / subme=11 / psy=1 / fade_compensate=0.00 / psy_rd=0.99:0.00 / mixed_ref=1 / me_range=48 / chroma_me=1 / trellis=2 / 8x8dct=1 / cqm=0 / deadzone=21,11 / fast_pskip=0 / chroma_qp_offset=-2 / threads=16 / lookahead_threads=3 / sliced_threads=0 / nr=0 / decimate=0 / interlaced=0 / bluray_compat=0 / constrained_intra=0 / fgo=0 / bframes=10 / b_pyramid=2 / b_adapt=2 / b_bias=0 / direct=3 / weightb=1 / open_gop=0 / weightp=2 / keyint=240 / keyint_min=23 / scenecut=40 / intra_refresh=0 / rc_lookahead=240 / rc=2pass / mbtree=0 / bitrate=3500 / ratetol=1.0 / qcomp=0.65 / qpmin=0 / qpmax=69 / qpstep=4 / cplxblur=20.0 / qblur=0.5 / vbv_maxrate=50000 / vbv_bufsize=62500 / nal_hrd=none / ip_ratio=1.30 / pb_ratio=1.30 / aq=4:0.90 / aq-sensitivity=10.00 / aq-factor=1.00:1.00:1.00 / aq2=0 / aq3=0 / zones=133247,140180,q=33
Language : French
Default : Yes
Forced : No
Audio #1
ID : 2
Format : AC-3
Format/Info : Audio Coding 3
Mode extension : CM (complete main)
Format settings, Endianness : Big
Codec ID : A_AC3
Duration : 1h 37mn
Bit rate mode : Constant
Bit rate : 448 Kbps
Channel(s) : 6 channels
Channel positions : Front: L C R, Side: L R, LFE
Sampling rate : 48.0 KHz
Bit depth : 16 bits
Compression mode : Lossy
Stream size : 312 MiB (10%)
Title : Dub
Language : Russian
Default : Yes
Forced : No
Audio #2
ID : 3
Format : AC-3
Format/Info : Audio Coding 3
Mode extension : CM (complete main)
Format settings, Endianness : Big
Codec ID : A_AC3
Duration : 1h 37mn
Bit rate mode : Constant
Bit rate : 448 Kbps
Channel(s) : 6 channels
Channel positions : Front: L C R, Side: L R, LFE
Sampling rate : 48.0 KHz
Bit depth : 16 bits
Compression mode : Lossy
Stream size : 312 MiB (10%)
Title : Original
Language : French
Default : No
Forced : No
Text #1
ID : 4
Format : UTF-8
Codec ID : S_TEXT/UTF8
Codec ID/Info : UTF-8 Plain Text
Title : Forced
Language : Russian
Default : Yes
Forced : Yes
Text #2
ID : 5
Format : UTF-8
Codec ID : S_TEXT/UTF8
Codec ID/Info : UTF-8 Plain Text
Title : Full
Language : Russian
Default : No
Forced : No
Text #3
ID : 6
Format : UTF-8
Codec ID : S_TEXT/UTF8
Codec ID/Info : UTF-8 Plain Text
Title : Full
Language : English
Default : No
Forced : No
Menu
00:00:00.000 : fr:Chapter 1
00:10:41.087 : fr:Chapter 2
00:24:59.122 : fr:Chapter 3
00:35:42.498 : fr:Chapter 4
00:44:44.077 : fr:Chapter 5
00:52:06.594 : fr:Chapter 6
00:56:47.913 : fr:Chapter 7
01:02:47.730 : fr:Chapter 8
01:09:34.593 : fr:Chapter 9
01:14:28.901 : fr:Chapter 10
01:23:31.687 : fr:Chapter 11
01:28:28.211 : fr:Chapter 12
[Профиль]  [ЛС] 
Похожие темы
Форум Тема Автор Размер
Отечественные сериалы Крутые повороты/Таксист/Монах [Серии: 1-12 из 12] (Марат Рафиков, Владимир Донсков, Сергей Осипьян, Андрей Лукашевич) [2003 г., боевик, DVDRip] anatolyi100 4,09 GB
Показать сообщения:    
Ответить на тему

Текущее время: 02-Дек 22:49

Часовой пояс: UTC + 3



Вы не можете начинать темы
Вы не можете отвечать на сообщения
Вы не можете редактировать свои сообщения
Вы не можете удалять свои сообщения
Вы не можете голосовать в опросах
Вы не можете прикреплять файлы к сообщениям
Вы не можете скачивать файлы