Карпов / Сезон:1 Серии: 1-32 из 32 (Игорь Ромащенко, Иван Щёголев, Гюзель Киреева) [2012 г., Детектив, криминал, драма, 8 x DVD9] Лицензия

Ответить на тему
Статистика раздачи [Обновить пиров]
Нет
 
   
 
 
Автор
Сообщение

mihis ®

Стаж: 2 года 1 месяц

Сообщений: 221

Создавать темы 29-Окт-2014 21:42

[Цитировать] 

Карпов32 СерииГод выпуска: 2012
Страна: Россия, Телекомпания "Dixi Медиа", НТВ
Жанр: Детектив, криминал, драма
Продолжительность: 32 х ~ 00:45:00
Перевод: Не требуется Лицензия
Субтитры: Нет
Режиссер: Игорь Ромащенко, Иван Щёголев, Гюзель Киреева
В ролях: Владислав Котлярский, Степан Рожнов, Юлия Майборода, Максим Щеголев, Николай Козак, Анна Михайловская, Дмитрий Блажко, Дмитрий Мазуров, Сергей Карленков, Константин Столяров, Михаил Скачков, Юлия Селиванова, Артем Барсуков, Александр Сергеев, Виктор Мютников, Константин Шелягин, Виктория Тарасова, Владислав Шкляев, Григорий Анашкин, Юлия Гусак, Арсений Перов, Андрей Сорока, Юрий Пономаренко, Андрей Перунов, Федор Румянцев, Анна Зверева, Андрей Березкин, Елена Калабина, Сергей Ланбамин, Ульяна Ворожейкина, Алексей Захаров, Максим Громов, Александр Шелудько, Александр Синюков, Анна Ровинская, Михаил Шкамаридин, Евгений Сафронов
Описание: Телесериал «Карпов» расскажет о дальнейшей судьбе бывшего подполковника милиции Стаса Карпова. Освободившись после принудительного лечения, Карпов оказывается «у разбитого корыта». Не осталось ничего из того, чего он так долго добивался: ни денег, ни положения, ни власти. Бывшему менту выписан волчий билет, в полицию он не попадет даже на самую мелкую должность. Пытаясь хоть как-то прокормить себя, Карпов устраивается работать охранником на склад. Он смотрит на мир трезвыми глазами, не задурманенными властью. Однажды он видит объявление о вознаграждении за розыск преступника и понимает, что помнит того по старым делам, и может разыскать его...

Качество: DVD 9
Формат: DVD Video
Видео кодек: MPEG2
Аудио кодек: AC3
Видео: PAL 16:9, [email protected], VBR, ~ 5409 Кбит/с, 25fps
Аудио: Dolby AC3, 2 ch, 192 Кбит/с, Dolby AC3, 6 ch, 448 Кбит/с Русский

Название серий

1 серия: Здесь темно и тихо
2 серия: Свидетель
3 серия: Со дна
4 серия: Куш
5 серия: Проверка на прочность
6 серия: Огонь
7 серия: Часть той силы
8 серия: Сети
9 серия: Хобот
10 серия: Крючок
11 серия: Никому не нужный псих
12 серия: Сон
13 серия: Гости из прошлого
14 серия: Переворот
15 серия: Схватка
16 серия: Для друга
17 серия: Слишком живой для мертвеца
18 серия: Нежить
19 серия: Чужая земля
20 серия: Признание
21 серия: Слишком много вопросов
22 серия: Киллер
23 серия: Входной билет
24 серия: Грязные игры
25 серия: Группа смерти
26 серия: Колпак
27 серия: Бойня
28 серия: Снежная королева
29 серия: Другие
30 серия: Звериная стая
31 серия: Зомби
32 серия: Тьма или Света

Инфо-файл

General
Complete name : F:\Карпов.Сезон 1.Серии 1-32.2012.8xDVD-9\Карпов 01-04\VIDEO_TS\VTS_01_1.VOB
Format : MPEG-PS
File size : 1 000 MiB
Duration : 22mn 39s
Overall bit rate mode : Variable
Overall bit rate : 6 171 Kbps
Writing library : |HCenc 0.24.0.0 - (c) 2004/2010|
Video
ID : 224 (0xE0)
Format : MPEG Video
Format version : Version 2
Format profile : [email protected]
Format settings, BVOP : Yes
Format settings, Matrix : Custom
Format settings, GOP : Variable
Duration : 22mn 39s
Bit rate mode : Variable
Bit rate : 5 409 Kbps
Maximum bit rate : 8 100 Kbps
Width : 720 pixels
Height : 576 pixels
Display aspect ratio : 16:9
Frame rate : 25.000 fps
Standard : PAL
Color space : YUV
Chroma subsampling : 4:2:0
Bit depth : 8 bits
Scan type : Progressive
Compression mode : Lossy
Bits/(Pixel*Frame) : 0.522
Stream size : 877 MiB (88%)
Alignment : |HCenc 0.24.0.0 - (c) 2004/2010|
Title : |HCenc 0.24.0.0 - (c) 2004/2010|
Writing library : |HCenc 0.24.0.0 - (c) 2004/2010|
Audio #1
ID : 189 (0xBD)-128 (0x80)
Format : AC-3
Format/Info : Audio Coding 3
Mode extension : CM (complete main)
Format settings, Endianness : Big
Muxing mode : DVD-Video
Duration : 22mn 39s
Bit rate mode : Constant
Bit rate : 192 Kbps
Channel(s) : 2 channels
Channel positions : Front: L R
Sampling rate : 48.0 KHz
Bit depth : 16 bits
Compression mode : Lossy
Stream size : 31.1 MiB (3%)
Audio #2
ID : 189 (0xBD)-129 (0x81)
Format : AC-3
Format/Info : Audio Coding 3
Mode extension : CM (complete main)
Format settings, Endianness : Big
Muxing mode : DVD-Video
Duration : 22mn 39s
Bit rate mode : Constant
Bit rate : 448 Kbps
Channel(s) : 6 channels
Channel positions : Front: L C R, Side: L R, LFE
Sampling rate : 48.0 KHz
Bit depth : 16 bits
Compression mode : Lossy
Stream size : 72.6 MiB (7%)
[Профиль]  [ЛС] 
Похожие темы
Форум Тема Автор Размер
Отечественные сериалы Карпов / Сезон: 3 / Серии: 1-32 из 32 (Иван Щёголев, Владислав Николаев) [2014, Детектив, Криминал, SATRip] Serega624 19,24 GB
Отечественные сериалы Карпов / Сезон:1 Серии: 1-32 из 32 (Игорь Ромащенко, Иван Щёголев, Гюзель Киреева) [2012 г., Детектив, криминал, драма, DVDRip] Лицензия mihis 20,59 GB
Показать сообщения:    
Ответить на тему

Текущее время: 03-Дек 20:41

Часовой пояс: UTC + 3



Вы не можете начинать темы
Вы не можете отвечать на сообщения
Вы не можете редактировать свои сообщения
Вы не можете удалять свои сообщения
Вы не можете голосовать в опросах
Вы не можете прикреплять файлы к сообщениям
Вы не можете скачивать файлы