Джон Адамс / John Adams (7 серий из 7) (Том Хупер) [2008 г., Историческая драма, BDRip] MVO LostFilm

Ответить на тему
Статистика раздачи [Обновить пиров]
Скачал: [ 1 ]
 
   
 
 
Автор
Сообщение

mihis ®

Стаж: 2 года 1 месяц

Сообщений: 221

Создавать темы 29-Окт-2014 22:00

[Цитировать] 

Джон Адамс / John Adams«Join or Die»7 серийГод выпуска: 2008
Страна: США, HBO Films
Жанр: Историческая драма
Продолжительность: 7 x ~ 01:10:00
Перевод: Профессиональный (многоголосый, закадровый) LostFilm + Оригинал
Субтитры: Английские (вшитые неотключаемые)
Режиссер: Том Хупер
В ролях: Пол Джаматти, Лора Линни, Стивен Диллэйн, Джон Доссет, Сара Полли, Дэвид Морс, Сэмюэл Барнетт, Эндрю Скотт, Дэнни Хьюстон, Мадлен Тейлор
Описание: Минисериал телеканала HBO. Повествует о жизни Джона Адамса и первых 50 лет существования Соединенных Штатов. Джон Адамс (30 октября 1735 — 4 июля 1826) — видный деятель Первой американской буржуазной революции, первый вице-президент и второй президент США (1797—1801). Юрист. Вместе с супругой Абигель Адамс стал основателем целой династии политиков. Его сын, Джон Куинси Адамс, стал шестым президентом США в 1825 году.

Качество: BDRip
Формат: AVI
Видео кодек: XviD
Аудио кодек: AC3
Видео: 720x400 (1.80:1), 23.976 fps, XviD build 73 ~1769 kbps avg, 0.26 bit/pixel
Аудио #1: 48 kHz, AC3 Dolby Digital, 3/2 (L,C,R,l,r) + LFE ch, ~384 kbps MVO
Аудио #2: 48 kHz, AC3 Dolby Digital, 3/2 (L,C,R,l,r) + LFE ch, ~384 kbps Eng

Название серий

1. Присоединяйся или умри (Join or Die)
2. Независимость (Independence)
3. Не наступайте на меня (Don't Tread on Me)
4. Воссоединение (Reunion)
5. Объединяйтесь или Умрите (Unite or Die)
6. Ненужная война (Unnecessary War)
7. Писвилд (Peacefield)

Награды

Золотой глобус, 2009 год
Победитель (4):
Лучший актёр мини-сериала или фильма на ТВ (Пол Джаматти)
Лучшая актриса мини-сериала или фильма на ТВ (Лора Линни)
Лучший актёр второго плана мини-сериала или фильма на ТВ (Том Уилкинсон)
Лучший мини-сериал или фильм на ТВ
Премия Гильдии актеров, 2009 год
Победитель (2):
Лучшая мужская роль в телефильме или минисериале (Пол Джаматти)
Лучшая женская роль в телефильме или минисериале (Лора Линни)
Номинации (1):
Лучшая мужская роль в телефильме или минисериале (Том Уилкинсон)
Эмми, 2008 год
Победитель (4):
Лучший мини-сериал
Лучшая мужская роль в мини-сериале или телефильме (Пол Джаматти)
Лучшая женская роль в мини-сериале или телефильме (Лора Линни)
Лучшая мужская роль второго плана в мини-сериале или телефильме (Том Уилкинсон)
Номинации (2):
Лучшая мужская роль второго плана в мини-сериале или телефильме (Стивен Диллэйн)
Лучшая мужская роль второго плана в мини-сериале или телефильме (Дэвид Морс)

MediaInfo

Общее
Полное имя : F:\Video\Джон Адамс\John.Adams.Part.1.avi
Формат : AVI
Формат/Информация : Audio Video Interleave
Размер файла : 1,26 Гбайт
Продолжительность : 1 ч. 10 м.
Общий поток : 2553 Кбит/сек
Программа кодирования : VirtualDubMod 1.5.10.3 | www.virtualdub-fr.org || (build 2550/release)
Библиотека кодирования : VirtualDubMod build 2550/release
Видео
Идентификатор : 0
Формат : MPEG-4 Visual
Профиль формата : Advanced [email protected]
Параметр BVOP формата : 2
Параметр QPel формата : Нет
Параметр GMC формата : Без точки перехода
Параметр матрицы формата : Выборочная
Идентификатор кодека : XVID
Идентификатор кодека/Подсказка : XviD
Продолжительность : 1 ч. 10 м.
Битрейт : 1771 Кбит/сек
Ширина : 720 пикселей
Высота : 400 пикселей
Соотношение сторон : 16:9
Частота кадров : 23,976 кадра/сек
Цветовое пространство : YUV
Субдискретизация насыщенности : 4:2:0
Битовая глубина : 8 бит
Тип развёртки : Прогрессивная
Метод сжатия : С потерями
Бит/(Пиксели*Кадры) : 0.256
Размер потока : 896 Мбайт (69%)
Библиотека кодирования : XviD 73
Аудио #1
Идентификатор : 1
Формат : AC-3
Формат/Информация : Audio Coding 3
Расширение режима : CM (complete main)
Параметр Endianness формата : Big
Идентификатор кодека : 2000
Продолжительность : 1 ч. 10 м.
Вид битрейта : Постоянный
Битрейт : 384 Кбит/сек
Каналы : 6 каналов
Расположение каналов : Front: L C R, Side: L R, LFE
Частота : 48,0 КГц
Битовая глубина : 16 бит
Метод сжатия : С потерями
Размер потока : 194 Мбайт (15%)
Выравнивание : Разделение по промежуткам
Продолжительность промежутка : 42 мс. (1,00 видеокадр)
Время предзагрузки промежутка : 500 мс.
Аудио #2
Идентификатор : 2
Формат : AC-3
Формат/Информация : Audio Coding 3
Расширение режима : CM (complete main)
Параметр Endianness формата : Big
Идентификатор кодека : 2000
Продолжительность : 1 ч. 10 м.
Вид битрейта : Постоянный
Битрейт : 384 Кбит/сек
Каналы : 6 каналов
Расположение каналов : Front: L C R, Side: L R, LFE
Частота : 48,0 КГц
Битовая глубина : 16 бит
Метод сжатия : С потерями
Размер потока : 194 Мбайт (15%)
Выравнивание : Разделение по промежуткам
Продолжительность промежутка : 42 мс. (1,00 видеокадр)
Время предзагрузки промежутка : 500 мс.
[Профиль]  [ЛС] 
Показать сообщения:    
Ответить на тему

Текущее время: 04-Дек 19:10

Часовой пояс: UTC + 3



Вы не можете начинать темы
Вы не можете отвечать на сообщения
Вы не можете редактировать свои сообщения
Вы не можете удалять свои сообщения
Вы не можете голосовать в опросах
Вы не можете прикреплять файлы к сообщениям
Вы не можете скачивать файлы