Гранд Отель / Gran Hotel (1-3 сезоны: 39 серий из 39) (Карлос Седес, Cильвия Квир, Хорхе Санчес-Кабесудо) [2011-2013 г., Драма, детектив, исторический, HDTVRip-AVC] Dub, Mvo

Ответить на тему
Статистика раздачи [Обновить пиров]
Скачал: [ 1 ]
 
   
 
 
Автор
Сообщение

mihis ®

Стаж: 2 года 1 месяц

Сообщений: 221

Создавать темы 29-Окт-2014 22:03

[Цитировать] 

Гранд Отель / Gran Hotel3 сезона, 39 серий Год выпуска: 2011-2013
Страна: Испания, Antena 3
Жанр: Драма, детектив, исторический
Продолжительность: 39 х ~ 01:15:00
Перевод:
1 сезон: Профессиональный (полное дублирование) ТК"Домашний"
2-3 сезон: Профессиональный (двухголосый закадровый) Sony Entertainment Television
Субтитры: нет
Режиссер: Карлос Седес, Cильвия Квир, Хорхе Санчес-Кабесудо
В ролях: Адриана Оcорес, Амайя Саламанка, Йон Гонсалес, Элой Асорин, Феле Мартинес, Мануэль Де Блас, Пеп Антон Муньос, Педро Алонсо, Марта Ларральде, Лус Вальденебро, Льоренс Гонсалес, Конча Веласко
Описание: Действие происходит в 1905 году. Молодой человек Хулио приезжает в идиллическое место Гран Отель, где он будет расследовать исчезновение своей сестры, притворившись официантом. Но на пути его расследования встретится Алисия Аларкон, член семьи, которая владеет отелем и которая станет единственным человеком, готовым помочь ему раскрыть правду. Между ними начнется невозможная история любви. Им мешает то обстоятельство, что Алисия помолвлена с Диего, амбициозным юношей, который готов на все, чтобы стать директором Гран Отеля.

Качество: HDTVRip-AVC
Формат: MKV
Видео кодек: H.26x
Аудио кодек: AC3
Видео: AVC, 1024x576 (16:9), 25.000 fps, 1 800 Kbps (0.122 bit/pixel)
Аудио: AC3, 48.0 KHz, 2 ch, 192 Kbps, CBR

MediaInfo

Общее
Уникальный идентификатор : 178313993033414317093759632557892166107 (0x8626069F539BF6D79CC50132666FE1DB)
Полное имя : D:\Video\Gran.Hotel.(1-3sezon).(AVC)\Gran.Hotel.(1-sezon).2011.HDTVRip.(AVC)\01-Gran.Hotel.(1sezon).2011.HDTVRip.(AVC)-Srg6161.mkv
Формат : Matroska
Версия формата : Version 2
Размер файла : 1022 Мбайт
Продолжительность : 1 ч. 11 м.
Общий поток : 1994 Кбит/сек
Название фильма : Гранд Отель (Gran Hotel) 2011 == Rip by Srg6161 ==
Дата кодирования : UTC 2013-11-16 07:25:45
Программа кодирования : mkvmerge v4.5.0 ('Speed of Light') сборка от Feb 1 2011 02:10:32
Библиотека кодирования : libebml v1.2.0 + libmatroska v1.1.0
Видео
Идентификатор : 1
Формат : AVC
Формат/Информация : Advanced Video Codec
Профиль формата : [email protected]
Параметр CABAC формата : Да
Параметр ReFrames формата : 8 кадров
Идентификатор кодека : V_MPEG4/ISO/AVC
Продолжительность : 1 ч. 11 м.
Битрейт : 1800 Кбит/сек
Ширина : 1024 пикселя
Высота : 576 пикселей
Соотношение сторон : 16:9
Режим частоты кадров : Постоянный
Частота кадров : 25,000 кадров/сек
Цветовое пространство : YUV
Субдискретизация насыщенности : 4:2:0
Битовая глубина : 8 бит
Тип развёртки : Прогрессивная
Бит/(Пиксели*Кадры) : 0.122
Размер потока : 904 Мбайт (88%)
Заголовок : Гранд Отель (Gran Hotel) 2011 (01 seriya) - Rip by Srg6161
Библиотека кодирования : x264 core 133 r2334 a3ac64b
Настройки программы : cabac=1 / ref=8 / deblock=1:-3:-3 / analyse=0x3:0x113 / me=hex / subme=7 / psy=1 / psy_rd=1.00:0.10 / mixed_ref=1 / me_range=16 / chroma_me=1 / trellis=1 / 8x8dct=1 / cqm=0 / deadzone=21,11 / fast_pskip=0 / chroma_qp_offset=-3 / threads=3 / lookahead_threads=1 / sliced_threads=0 / nr=0 / decimate=1 / interlaced=0 / bluray_compat=0 / constrained_intra=0 / bframes=5 / b_pyramid=2 / b_adapt=1 / b_bias=0 / direct=1 / weightb=1 / open_gop=0 / weightp=2 / keyint=250 / keyint_min=23 / scenecut=40 / intra_refresh=0 / rc_lookahead=40 / rc=2pass / mbtree=1 / bitrate=1800 / ratetol=1.0 / qcomp=0.60 / qpmin=10 / qpmax=51 / qpstep=4 / cplxblur=20.0 / qblur=0.5 / vbv_maxrate=62500 / vbv_bufsize=78125 / nal_hrd=none / ip_ratio=1.40 / aq=1:1.00
Язык : English
Default : Да
Forced : Нет
Аудио
Идентификатор : 2
Формат : AC-3
Формат/Информация : Audio Coding 3
Расширение режима : CM (complete main)
Параметр Endianness формата : Big
Идентификатор кодека : A_AC3
Продолжительность : 1 ч. 11 м.
Вид битрейта : Постоянный
Битрейт : 192 Кбит/сек
Каналы : 2 канала
Расположение каналов : Front: L R
Частота : 48,0 КГц
Битовая глубина : 16 бит
Метод сжатия : С потерями
Размер потока : 98,5 Мбайт (10%)
Заголовок : Дублирование (Объединение "Русский дубляж" по заказу ТК"Домашний")
Язык : Russian
Default : Да
Forced : Нет
Аудио
Идентификатор : 2
Формат : AC-3
Формат/Информация : Audio Coding 3
Расширение режима : CM (complete main)
Параметр Endianness формата : Big
Идентификатор кодека : A_AC3
Продолжительность : 1 ч. 11 м.
Вид битрейта : Постоянный
Битрейт : 192 Кбит/сек
Каналы : 2 канала
Расположение каналов : Front: L R
Частота : 48,0 КГц
Битовая глубина : 16 бит
Метод сжатия : С потерями
Размер потока : 98,5 Мбайт (10%)
Заголовок : Профессиональный двухголосый закадровый (Sony Entertainment Television)
Язык : Russian
Default : Да
Forced : Нет
[Профиль]  [ЛС] 
Показать сообщения:    
Ответить на тему

Текущее время: 10-Дек 23:21

Часовой пояс: UTC + 3



Вы не можете начинать темы
Вы не можете отвечать на сообщения
Вы не можете редактировать свои сообщения
Вы не можете удалять свои сообщения
Вы не можете голосовать в опросах
Вы не можете прикреплять файлы к сообщениям
Вы не можете скачивать файлы