Дон Корлеоне / Il Capo dei capi (1-12 серии из 12) (Алексис Кехилл, Энсо Монтелеони) [2007 г., Драма, криминал, биография, история, DVDRip] MVO

Ответить на тему
Статистика раздачи [Обновить пиров]
Нет
 
   
 
 
Автор
Сообщение

mihis ®

Стаж: 2 года 1 месяц

Сообщений: 221

Создавать темы 29-Окт-2014 22:08

[Цитировать] 

Дон Корлеоне / Il Capo dei capi12 серий Год выпуска: 2007
Страна: Италия, Taodue Film S.r.l.
Жанр: Драма, криминал, биография, история
Продолжительность: 12 х ~ 00:50:00
Перевод: Профессиональный (многоголосый, закадровый)
Субтитры: нет
Режиссер: Алексис Кехилл, Энсо Монтелеони
В ролях: Клаудио Джоэ, Даниэле Лиотти, Сальваторе Лаццаро, Симона Каваллари, Гаэтано Ароника, Франческо Ди Лоренцо, Андреа Тидона, Марко Леонарди, Джоя Спациани, Франческо Касиса, Матильде Пьяна, Джачинто Ферро, Клаудио Кастроджиованни, Кармело Галати, Илеана Ригано, Джорджия Кардачи, Пьер Луиджи Мизази, Паоло Рицца, Витторио Ди Паола, Альфредо Пеа, Массимо Вентурьелло, Винсент Риотта, Орио Скадуто, Мануэла Вентура, Элеонора Серджо, Клаудио Анджелини, Пьетро Де Силва, Франческо Фоти, Алессио Карузо, Миммо Миньеми, Мауро Маркетти, Лука Анджелетти, Фабрицио Ферракане, Анджело Руссо, Карло Картье, Лучиано Миле, Паоло Де Джорджо
Описание: Драматический рассказ о жизненном пути Тото Рина, легендарного босса Коза Ностра. Фильм начинается в начале 1940-я годов, когда люди пытались выжить в условиях войны и нестабильности. Родившись в маленьком городке на юге Италии, Тото рано стал главой семьи после гибели отца при взрыве мины времен Первой мировой войны. Попав по влияние лидера клана Корлеоне, Тото принимает активное участие в борьбе за власть в мафиозной среде, которую ведут Корлеоне, и постепенно превращается в одну из самых заметных фигур в "семье". Одна из сюжетных линий "Корлеоне" - о врагах Рина, безжалостно преследовавших мафию. История заканчивается в 1993 году, когда Тото Рина был арестован капитаном Ультимо, который разыскал и не побоялся заключить под стражу главу мафиози.

Качество: DVDRip
Формат: AVI
Видео кодек: DivX
Аудио кодек: AC3
Видео: 688x384 (1.79:1), 25 fps, DivX Codec 5.2.1 beta ~1592 kbps avg, 0.24 bit/pixel
Аудио: 48 kHz, AC3 Dolby Digital, 3/2 (L,C,R,l,r) + LFE ch, ~448.00 kbps avg

Название серий

1.1943-1958 (часть 1)
2.1943-1958 (часть 2)
3.1963–1969 (часть 1)
4.1963–1969 (часть 2)
5.1969–1978 (часть 1)
6.1969–1978 (часть 2)
7.1979–1981 (часть 1)
8.1979–1981 (часть 2)
9.1982-1987 (часть 1)
10.1982-1987 (часть 2)
11.1988-1993 (часть 1)
12.1988-1993 (часть 2)

MediaInfo

Общее
Полное имя : I:\Video\Don.Korleone.(12.serii.iz.12).2007.DivX.DVDRip.Kinozal.TV\Don.Korleone.(01.seriya.iz.12).2007.DivX.DVDRip.Kinozal.TV.avi
Формат : AVI
Формат/Информация : Audio Video Interleave
Размер файла : 701 Мбайт
Продолжительность : 47 м.
Общий поток : 2050 Кбит/сек
Программа кодирования : VirtualDubMod 1.5.10.2 (build 2540/release)
Библиотека кодирования : VirtualDubMod build 2540/release
Видео
Идентификатор : 0
Формат : MPEG-4 Visual
Параметр BVOP формата : 1
Параметр QPel формата : Нет
Параметр GMC формата : Без точки перехода
Параметр матрицы формата : Default (MPEG)
Режим смешивания : Сжатый битовый поток
Идентификатор кодека : DX50
Идентификатор кодека/Подсказка : DivX 5
Продолжительность : 47 м.
Битрейт : 1592 Кбит/сек
Ширина : 688 пикселей
Высота : 384 пикселя
Соотношение сторон : 16:9
Частота кадров : 25,000 кадров/сек
Цветовое пространство : YUV
Субдискретизация насыщенности : 4:2:0
Битовая глубина : 8 бит
Тип развёртки : Прогрессивная
Метод сжатия : С потерями
Бит/(Пиксели*Кадры) : 0.241
Размер потока : 545 Мбайт (78%)
Библиотека кодирования : DivX 5.2.1 Beta (UTC 2004-09-08)
Аудио
Идентификатор : 1
Формат : AC-3
Формат/Информация : Audio Coding 3
Расширение режима : CM (complete main)
Параметр Endianness формата : Big
Идентификатор кодека : 2000
Продолжительность : 47 м.
Вид битрейта : Постоянный
Битрейт : 448 Кбит/сек
Каналы : 6 каналов
Расположение каналов : Front: L C R, Side: L R, LFE
Частота : 48,0 КГц
Битовая глубина : 16 бит
Метод сжатия : С потерями
Задержка видео : 8 мс.
Размер потока : 153 Мбайт (22%)
Выравнивание : Разделение по промежуткам
Продолжительность промежутка : 40 мс. (1,00 видеокадр)
Время предзагрузки промежутка : 500 мс.
[Профиль]  [ЛС] 
Показать сообщения:    
Ответить на тему

Текущее время: 09-Дек 18:23

Часовой пояс: UTC + 3



Вы не можете начинать темы
Вы не можете отвечать на сообщения
Вы не можете редактировать свои сообщения
Вы не можете удалять свои сообщения
Вы не можете голосовать в опросах
Вы не можете прикреплять файлы к сообщениям
Вы не можете скачивать файлы