Земля волков / Tierra de Lobos (1-3 сезон: 1-42 серии из 42) (Хоакин Льямас, Хайме Ботелья, Норберто Лопес Амадо) [2010-2013 г., Драма, мелодрама, детектив, WEB-DLRip-AVC ] MVO SET

Ответить на тему
Статистика раздачи [Обновить пиров]
Нет
 
   
 
 
Автор
Сообщение

mihis ®

Стаж: 2 года 1 месяц

Сообщений: 221

Создавать темы 29-Окт-2014 22:10

[Цитировать] 

Земля волков / Tierra de Lobos3 сезона: 42 серии Год выпуска: 2010-2013
Страна: Испания, Multipark Ficcion, Telecinco
Жанр: Драма, мелодрама, детектив
Продолжительность: 42 x ~ 01:15:00
Перевод: Профессиональный (многоголосый, закадровый) SET
Субтитры: нет
Режиссер: Хоакин Льямас, Хайме Ботелья, Норберто Лопес Амадо
В ролях: Алехандро Гарсия, Хунио Вальверде, Мария Кастро, Марио Пардо, Элиса Матилья, Хуан Фернандес, Сильвия Алонсо, Адриана Торребехано, Дафни Фернандес, Антонио Веласкес, Карла Диас, Хавьер Вильяльба, Николас Коронадо, Хорди Рико, Эва Педраса, Берта Хернендез
Описание: Действие разворачивается в 1878 году. Сесар Браво и Роман Браво, родные братья, возвращаются на ранчо, где они родились и провели свое детство. Причина возвращения не самая приятная – в Португалии, где они искали счастья и лучшей жизни, произошел неприятный инцидент с грабежом, в результате которого погибли их товарищи, а им самим пришлось бежать. Поместье, куда они возвращаются, называется Tierra de lobos, что в переводе означает «Земля волков» – теперь здесь всем заправляет богатый землевладелец Антонио Лобо, который совсем не рад видеть незваных гостей. Конфликт обостряет то, что Сесар влюбляется в одну из четырех прелестных дочерей рантье.

Качество: WEB-DLRip-AVC
Формат: MKV
Видео кодек: H.264
Аудио кодек: AC3
Видео: AVC, 1024x576 (16:9), 25.000 fps, 1 900 Kbps (0.116 bit/pixel)
Аудио: AC3, 48.0 KHz, 2 ch, 192 Kbps, CBR

Название серий

Сезон 1
01. En busca de un nuevo comienzo
02. Un pozo para morir
03. Hasta la ultima gota
04. Luna llena
05. El descubrimiento de Almudena
06. Anselmo esta arruinado
07. Al amanecer
08. Se busca
09. Huida
10. La feria
11. El fin de La Quebrada
12. El penal de la torre
13. Si­, quiero
Сезон 2
01. Yo te maldigo
02. Pueblo tomado
03. Quiero verte sufrir
04. Traición
05. La leyenda de las tres llaves
06. Como hermanos
07. El túnel
08. Tierra quemada
09. Quebrantahuesos
10. Forajidos
11. La misma sangre
12. La viuda
13. Una promesa cumplida
Сезон 3
01. Фернандо Браво
02. Возвращение домой
03. Прах к праху
04. Братья по крови
05. Проклятие Лобо
06. Обмен
07. Пожар
08. Гость
09. Сложный выбор
10. Маскарад
11. Хозяйка дома
12. Крест Свинтила
13. Месть народа
14. Возвращение
15. Завещание
16. Земля героев

MediaInfo

Земля волков (Tierra de lobos) 2010-2013 (AVC)\1 сезон - 2010 Земля волков (Tierra de lobos)\09-Zemlya.Volkov.(1sezon).2010.WEB-DLRip.(AVC)-Srg6161.mkv
General
Unique ID : 213675576747373365214666490249752957752 (0xA0C06B4E5849C6EA8831D158BB815338)
Complete name : Земля волков (Tierra de lobos) 2010-2013 (AVC)\1 сезон - 2010 Земля волков (Tierra de lobos)\09-Zemlya.Volkov.(1sezon).2010.WEB-DLRip.(AVC)-Srg6161.mkv
Format : Matroska
File size : 1.10 GiB
Duration : 1h 12mn
Overall bit rate : 2 161 Kbps
Movie name : Земля волков (Tierra de lobos) 2010 == Rip by Srg6161 ==
Encoded date : UTC 2014-05-30 16:31:41
Writing application : mkvmerge v4.5.0 ('Speed of Light') сборка от Feb 1 2011 02:10:32
Writing library : libebml v1.2.0 + libmatroska v1.1.0
Video #1
ID : 1
Format : AVC
Format/Info : Advanced Video Codec
Format profile : [email protected]
Format settings, CABAC : Yes
Format settings, ReFrames : 8 frames
Codec ID : V_MPEG4/ISO/AVC
Duration : 1h 12mn
Bit rate : 1 967 Kbps
Width : 1 024 pixels
Height : 576 pixels
Display aspect ratio : 16:9
Frame rate : 25.000 fps
Color space : YUV
Chroma subsampling : 4:2:0
Bit depth : 8 bits
Scan type : Progressive
Bits/(Pixel*Frame) : 0.133
Stream size : 1 003 MiB (89%)
Title : Земля волков (Tierra de lobos) 2010 (09 seriya) - Rip by Srg6161
Writing library : x264 core 138 r2358 9e941d1
Encoding settings : cabac=1 / ref=8 / deblock=1:-3:-3 / analyse=0x3:0x113 / me=hex / subme=7 / psy=1 / psy_rd=1.00:0.10 / mixed_ref=1 / me_range=16 / chroma_me=1 / trellis=1 / 8x8dct=1 / cqm=0 / deadzone=21,11 / fast_pskip=0 / chroma_qp_offset=-3 / threads=3 / lookahead_threads=1 / sliced_threads=0 / nr=0 / decimate=1 / interlaced=0 / bluray_compat=0 / constrained_intra=0 / bframes=5 / b_pyramid=2 / b_adapt=1 / b_bias=0 / direct=1 / weightb=1 / open_gop=0 / weightp=2 / keyint=250 / keyint_min=23 / scenecut=40 / intra_refresh=0 / rc_lookahead=40 / rc=2pass / mbtree=1 / bitrate=1967 / ratetol=1.0 / qcomp=0.60 / qpmin=10 / qpmax=51 / qpstep=4 / cplxblur=20.0 / qblur=0.5 / vbv_maxrate=62500 / vbv_bufsize=78125 / nal_hrd=none / ip_ratio=1.40 / aq=1:1.00
Language : English
Audio #2
ID : 2
Format : AC-3
Format/Info : Audio Coding 3
Mode extension : CM (complete main)
Codec ID : A_AC3
Duration : 1h 12mn
Bit rate mode : Constant
Bit rate : 192 Kbps
Channel(s) : 2 channels
Channel positions : Front: L R
Sampling rate : 48.0 KHz
Bit depth : 16 bits
Compression mode : Lossy
Stream size : 100.0 MiB (9%)
Title : Профессиональный (многоголосый, закадровый) - SET
Language : Russian
[Профиль]  [ЛС] 
Похожие темы
Форум Тема Автор Размер
HD Астерикс: Земля Богов / Asterix: The Mansions of the Gods / Astérix: Le domaine des dieux (2014) 1080p WEB-DL F1eanor 3,23 GB
Отечественные сериалы Земляк / Шериф [Серии: 1-6 из 6] (Максим Бриус) [2013 г., Боевик, криминал, SATRip] anatolyi100 4,01 GB
Аудиокниги Земляной Андрей - "Драконы Сарда" [Рустам Гинатуллин, 2013] Oldket 1,03 GB
Аудиокниги Земляной Андрей - Цикл "Странник" [Рустам Гинатуллин, 2012] Oldket 2,35 GB
Аудиокниги Круз Андрей, Круз Мария - "Земля лишних.За други своя" [Чайцын Александр, 2012] Oldket 851 MB
Аудиокниги Круз Андрей, Круз Мария - "Земля лишних.Исход" [Чайцын Александр, 2011] Oldket 987 MB
Аудиокниги Круз Андрей, Круз Мария - "Земля лишних.Новая жизнь" [Чайцын Александр, 2012] Oldket 1,01 GB
Зарубежное кино Моя земля / Under sandet (2015) HDRip | L1 Тоха™ 1,45 GB
Показать сообщения:    
Ответить на тему

Текущее время: 03-Дек 05:24

Часовой пояс: UTC + 3



Вы не можете начинать темы
Вы не можете отвечать на сообщения
Вы не можете редактировать свои сообщения
Вы не можете удалять свои сообщения
Вы не можете голосовать в опросах
Вы не можете прикреплять файлы к сообщениям
Вы не можете скачивать файлы