Злоумышленники / Intruders (1 сезон: 8 серий из 8) ( Даниэль Штамм, Эдуардо Санчес) [2014 г., Триллер, детектив, фантастика, WEB-DLRip] MVO IdeaFilm

Ответить на тему
Статистика раздачи [Обновить пиров]
Нет
 
   
 
 
Автор
Сообщение

mihis ®

Стаж: 2 года 1 месяц

Сообщений: 221

Создавать темы 30-Окт-2014 12:09

[Цитировать] 

Злоумышленники / Intruders8 серий Год выпуска: 2014
Страна: США, BBC Worldwide Productions
Жанр: Триллер, детектив, фантастика
Продолжительность: 8 x ~ 00:45:00
Перевод: Профессиональный (многоголосый, закадровый) IdeaFilm
Субтитры: нет
Режиссер: Даниэль Штамм, Эдуардо Санчес
В ролях: Джон Симм, Мира Сорвино, Соня Саломяа, Дэрил Шаттлворф, Тоби Харгрейв, Карин Коновал, Шамир Андерсон
Описание: Сюжет сериала вращается вокруг тайного общества, члены которого обнаружили способ поселяться в телах других людей, таким образом, обретая бессмертие. Джек Уэйлен - человек, прошлое которого покрыто мраком и тайнами. Когда-то он работал в полиции, сейчас же он живет вместе со своей женой Эми. Джек хочет забыть все, что с ним произошло и игнорирует ошибки своего прошлого. Вскоре Эми исчезает и ему приходится начать расследование, и становится понятно, что к этому каким-то образом причастно тайное общество.

Качество: WEB-DLRip
Формат: AVI
Видео кодек: XviD
Аудио кодек: MP3
Видео: 720x400 (1.80:1), 23.976 fps, XviD build 50 ~1392 kbps avg, 0.20 bit/pixel
Аудио: 48 kHz, MPEG Layer 3, 2 ch, ~128.00 kbps avg

Название серий

01. She Was Provisional
02. And Here… You Must Listen
03. Time Has Come Today
04. Ave Verum Corpus
05. The Shepherds and the Fox
06. Bound
07. The Crossing Place
08. There Is No End

MediaInfo

Общее
Полное имя : I:\Video\Intruders. S01 (2014) WEB-DLRip L [Ideafilm]\Intruders S01E01 (2014) WEB-DLRip L [Ideafilm].avi
Формат : AVI
Формат/Информация : Audio Video Interleave
Размер файла : 501 Мбайт
Продолжительность : 45 м.
Общий поток : 1530 Кбит/сек
Программа кодирования : VirtualDubMod 1.5.10.3 | www.virtualdub-fr.org || (build 2550/release)
Библиотека кодирования : VirtualDubMod build 2550/release
Видео
Идентификатор : 0
Формат : MPEG-4 Visual
Профиль формата : Advanced [email protected]
Параметр BVOP формата : 1
Параметр QPel формата : Нет
Параметр GMC формата : Без точки перехода
Параметр матрицы формата : Default (H.263)
Идентификатор кодека : XVID
Идентификатор кодека/Подсказка : XviD
Продолжительность : 45 м.
Битрейт : 1393 Кбит/сек
Ширина : 720 пикселей
Высота : 400 пикселей
Соотношение сторон : 16:9
Частота кадров : 23,976 кадра/сек
Цветовое пространство : YUV
Субдискретизация насыщенности : 4:2:0
Битовая глубина : 8 бит
Тип развёртки : Прогрессивная
Метод сжатия : С потерями
Бит/(Пиксели*Кадры) : 0.202
Размер потока : 456 Мбайт (91%)
Библиотека кодирования : XviD 1.2.1 (UTC 2008-12-04)
Аудио
Идентификатор : 1
Формат : MPEG Audio
Версия формата : Version 1
Профиль формата : Layer 3
Идентификатор кодека : 55
Идентификатор кодека/Подсказка : MP3
Продолжительность : 45 м.
Вид битрейта : Постоянный
Битрейт : 128 Кбит/сек
Каналы : 2 канала
Частота : 48,0 КГц
Метод сжатия : С потерями
Размер потока : 41,9 Мбайт (8%)
Выравнивание : Соединение по промежуткам
Продолжительность промежутка : 42 мс. (1,00 видеокадр)
Время предзагрузки промежутка : 504 мс.
Библиотека кодирования : LAME3.99r
Настройки программы : -m s -V 4 -q 2 -lowpass 17 -b 128
[Профиль]  [ЛС] 
Показать сообщения:    
Ответить на тему

Текущее время: 06-Дек 08:47

Часовой пояс: UTC + 3



Вы не можете начинать темы
Вы не можете отвечать на сообщения
Вы не можете редактировать свои сообщения
Вы не можете удалять свои сообщения
Вы не можете голосовать в опросах
Вы не можете прикреплять файлы к сообщениям
Вы не можете скачивать файлы