Иерихон / Jericho / 1-2 Сезон, Серии 1-29 из 29 (Гай Норман Би, Сэнфорд Букставер, Джеймс Уитмор мл., Джон Тёртелтауб) [2006-2008 г., Драма, фантастика, приключения, HDTVRip] MVO

Ответить на тему
Статистика раздачи [Обновить пиров]
Качаю: [ 1 ]
 
   
 
 
Автор
Сообщение

mihis ®

Стаж: 2 года 1 месяц

Сообщений: 221

Создавать темы 30-Окт-2014 12:14

[Цитировать] 

Иерихон / Jericho«Today is the Last Ordinary Day»1-2 Сезон, Серий 29 Год выпуска: 2006-2008
Страна: США, CBS
Жанр: Драма, фантастика, приключения
Продолжительность: 29 x ~ 00:45:00
Перевод:
1 Сезон Профессиональный (многоголосый, закадровый) ДТВ
2 Сезон Профессиональный (многоголосый, закадровый) LostFilm
Субтитры: Нет
Режиссер: Гай Норман Би, Сэнфорд Букставер, Джеймс Уитмор мл., Джон Тёртелтауб
В ролях: Скит Ульрих, Эшли Скотт, Спрейг Грейден, Эрик Кнудсен, Ленни Джеймс, Джеральд МакРейни, Памела Рид, Кеннет Митчелл, Майкл Гэтсон, Брэл Бейер, Шошанна Штерн, Дарби Стенчфилд, Бет Грант..
Описание: Ранним солнечным утром, когда ничто не предвещало беды, жители небольшого провинциального американского городка Иерихон в штате Канзас увидели на горизонте медленно, но зловеще растущее атомное облако. Им ещё только предстоит узнать, что в результате террористической ядерной атаки пострадали крупнейшие города 23 американских штатов. Хаос, царящий на улицах некогда спокойного городка, вызван страхом перед неизвестностью - жители Иерихона не знают, что именно произошло, насколько опасен взрыв и есть ли выжившие за пределами их города. Именно этот первобытный страх превращает Иерихон в подобие ада - полностью разрушенные системы связи с внешним миром, угроза радиоактивного заражения, отсутствие запаса продовольствия пугают людей и будят в некоторых гражданах панику, злость, ненависть, порой граничащие с безумием. Но чтобы выжить, жителям Иерихона нужно во что бы то ни стало держаться вместе и научиться жить заново.

Качество: HDTVRip
Формат: AVI
Видео кодек: XviD
Аудио кодек: AC3
Видео: 688x384 (1.79:1), 23.976 fps, XviD build 50 ~1592 kbps avg, 0.25 bit/pixel
Аудио #1: 48 kHz, AC3 Dolby Digital, 2/0 (L,R) Surround Encoded ch, ~192 kbps ДТВ
Аудио #2: 48 kHz, AC3 Dolby Digital, 3/2 (L,C,R,l,r) + LFE ch, ~384 kbps LostFilm

Список серий

Первый сезон:
01. Пилотная серия
02. Осадки
03. Четыре всадника
04. Стены Иерихона
05. Реакция правительства
06. 9:02
07. Да здравствует мэр
08. Роуг-Ривер
09. На распутье
10. Красный флаг
11. Глас народа
12. За день до…
13. Блэк Джэк
14. Среди зимы
15. Семпер Фиделис
16. Конец зимы
17. Террорист-одиночка
18. Псевдоним
19. Повод для Войны
20. Буревестник
21. Общая цель
22. За что сражаемся
Второй сезон:
1. Восстановление
2. Кондор
3. Дженнингс и Ролл
4. Надзор
5. Повод для увольнения
6. Мятеж
7. Патриоты и тираны

Награды

Сатурн, 2009 год
Номинации (1):
Лучшая телепостановка
Сатурн, 2007 год
Номинации (1):
Лучший телесериал, созданный для телетрансляции

MediaInfo

Общее
Полное имя : D:VideoИерихон_1-2 сезонИерихон_1 сезонJericho.S01 01.HDTVRip.avi
Формат : AVI
Формат/Информация : Audio Video Interleave
Размер файла : 591 Мбайт
Продолжительность : 40 м.
Общий поток : 2063 Кбит/сек
Программа кодирования : VirtualDubMod 1.5.10.2 (build 2540/release)
Библиотека кодирования : VirtualDubMod build 2540/release
Видео
Идентификатор : 0
Формат : MPEG-4 Visual
Профиль формата : Advanced [email protected]
Параметр BVOP формата : 1
Параметр QPel формата : Нет
Параметр GMC формата : Без точки перехода
Параметр матрицы формата : Выборочная
Идентификатор кодека : XVID
Идентификатор кодека/Подсказка : XviD
Продолжительность : 40 м.
Битрейт : 1861 Кбит/сек
Ширина : 688 пикселей
Высота : 384 пикселя
Соотношение сторон : 16:9
Частота кадров : 23,976 кадра/сек
Цветовое пространство : YUV
Субдискретизация насыщенности : 4:2:0
Битовая глубина : 8 бит
Тип развёртки : Прогрессивная
Метод сжатия : С потерями
Бит/(Пиксели*Кадры) : 0.294
Размер потока : 533 Мбайт (90%)
Библиотека кодирования : XviD 1.2.1 (UTC 2008-12-04)
Аудио
Идентификатор : 1
Формат : AC-3
Формат/Информация : Audio Coding 3
Профиль формата : Dolby Digital
Расширение режима : CM (complete main)
Параметр Endianness формата : Big
Идентификатор кодека : 2000
Продолжительность : 40 м.
Вид битрейта : Постоянный
Битрейт : 192 Кбит/сек
Каналы : 2 канала
Расположение каналов : Front: L R
Частота : 48,0 КГц
Битовая глубина : 16 бит
Метод сжатия : С потерями
Размер потока : 55,0 Мбайт (9%)
Выравнивание : Разделение по промежуткам
Продолжительность промежутка : 42 мс. (1,00 видеокадр)
Время предзагрузки промежутка : 500 мс.
Общее
Полное имя : D:VideoИерихон_1-2 сезонИерихон_2 сезонJericho.S02 01.HDTVRip.avi
Формат : AVI
Формат/Информация : Audio Video Interleave
Размер файла : 621 Мбайт
Продолжительность : 43 м.
Общий поток : 1986 Кбит/сек
Программа кодирования : VirtualDubMod 1.5.10.2 (build 2540/release)
Библиотека кодирования : VirtualDubMod build 2540/release
Видео
Идентификатор : 0
Формат : MPEG-4 Visual
Профиль формата : Advanced [email protected]
Параметр BVOP формата : 1
Параметр QPel формата : Нет
Параметр GMC формата : Без точки перехода
Параметр матрицы формата : Выборочная
Идентификатор кодека : XVID
Идентификатор кодека/Подсказка : XviD
Продолжительность : 43 м.
Битрейт : 1593 Кбит/сек
Ширина : 688 пикселей
Высота : 384 пикселя
Соотношение сторон : 16:9
Частота кадров : 23,976 кадра/сек
Цветовое пространство : YUV
Субдискретизация насыщенности : 4:2:0
Битовая глубина : 8 бит
Тип развёртки : Прогрессивная
Метод сжатия : С потерями
Бит/(Пиксели*Кадры) : 0.251
Размер потока : 498 Мбайт (80%)
Библиотека кодирования : XviD 1.2.1 (UTC 2008-12-04)
Аудио
Идентификатор : 1
Формат : AC-3
Формат/Информация : Audio Coding 3
Расширение режима : CM (complete main)
Параметр Endianness формата : Big
Идентификатор кодека : 2000
Продолжительность : 43 м.
Вид битрейта : Постоянный
Битрейт : 384 Кбит/сек
Каналы : 6 каналов
Расположение каналов : Front: L C R, Side: L R, LFE
Частота : 48,0 КГц
Битовая глубина : 16 бит
Метод сжатия : С потерями
Размер потока : 120 Мбайт (19%)
Выравнивание : Разделение по промежуткам
Продолжительность промежутка : 42 мс. (1,00 видеокадр)
Время предзагрузки промежутка : 500 мс.
[Профиль]  [ЛС] 
Показать сообщения:    
Ответить на тему

Текущее время: 05-Дек 05:21

Часовой пояс: UTC + 3



Вы не можете начинать темы
Вы не можете отвечать на сообщения
Вы не можете редактировать свои сообщения
Вы не можете удалять свои сообщения
Вы не можете голосовать в опросах
Вы не можете прикреплять файлы к сообщениям
Вы не можете скачивать файлы