Клондайк / Klondike (1 сезон: 1-6 серии из 6) (Саймон Селлан Джоунс) [2014 г., Драма, приключения, WEB-DLRip] MVO

Ответить на тему
Статистика раздачи [Обновить пиров]
Нет
 
   
 
 
Автор
Сообщение

mihis ®

Стаж: 2 года 1 месяц

Сообщений: 221

Создавать темы 30-Окт-2014 12:17

[Цитировать] 

Клондайк / Klondike«What doesn't kill you makes you a fortune»6 серии из 6 Год выпуска: 2014
Страна: США, Канада, Discovery Channel, Scott Free Productions, Discovery Entertainment One, Nomadic Pictures
Жанр: Драма, приключения
Продолжительность: 6 x ~ 00:48:00
Перевод: Профессиональный (многоголосый, закадровый) AlexFilm
Субтитры: нет
Режиссер: Саймон Селлан Джоунс
В ролях: Тим Рот, Сэм Шепард, Эбби Корниш, Джонни Симмонс, Иэн Харт, Ричард Мэдден, Конор Лесли, Тим Блейк Нельсон, Август Прю, Грег Лосон, Брайан Маркинсон, Мартон Чокаш, Джеймс Д. Хопкин, Виктор Ателевич
Описание: В центре сюжета — история шестерых золотоискателей, которые встречаются в долине реки Юкон во времена Золотой лихорадки. Им предстоит выжить в суровых северных краях, куда отправлялись самые отчаянные авантюристы.

Качество: WEB-DLRip
Формат: AVI
Видео кодек: XviD
Аудио кодек: MP3
Видео: 720x400 (1.80:1), 23.976 fps, XviD build 50 ~1400 kbps avg, 0.20 bit/pixel
Аудио #1: 48 kHz, MPEG Layer 3, 2 ch, ~128.00 kbps avg MVO
Аудио #2: 48 kHz, MPEG Layer 3, 2 ch, ~128.00 kbps avg Eng
Примечание: по две серии в одном файле

MediaInfo

Complete name : K:\Video\Klondike.2014.WEB-DLRip.AlexFilm\Klondike.2014.E01-E02.Part.One.WEB-DLRip.Rus.Eng.AlexFilm.avi
Format : AVI
Format/Info : Audio Video Interleave
File size : 1.12 GiB
Duration : 1h 36mn
Overall bit rate : 1 672 Kbps
Movie name : Klondike 2014 Part One @ AlexFilm
Writing application : VirtualDubMod 1.5.10.2 (build 2542/release)
Writing library : VirtualDubMod build 2542/release
Video
ID : 0
Format : MPEG-4 Visual
Format profile : Advanced [email protected]
Format settings, BVOP : 1
Format settings, QPel : No
Format settings, GMC : No warppoints
Format settings, Matrix : Default (MPEG)
Codec ID : XVID
Codec ID/Hint : XviD
Duration : 1h 36mn
Bit rate : 1 402 Kbps
Width : 720 pixels
Height : 400 pixels
Display aspect ratio : 16:9
Frame rate : 23.976 fps
Color space : YUV
Chroma subsampling : 4:2:0
Bit depth : 8 bits
Scan type : Progressive
Compression mode : Lossy
Bits/(Pixel*Frame) : 0.203
Stream size : 963 MiB (84%)
Writing library : XviD 1.2.1 (UTC 2008-12-04)
Audio #1
ID : 1
Format : MPEG Audio
Format version : Version 1
Format profile : Layer 3
Mode : Joint stereo
Mode extension : MS Stereo
Codec ID : 55
Codec ID/Hint : MP3
Duration : 1h 36mn
Bit rate mode : Constant
Bit rate : 128 Kbps
Channel(s) : 2 channels
Sampling rate : 48.0 KHz
Compression mode : Lossy
Stream size : 87.9 MiB (8%)
Alignment : Aligned on interleaves
Interleave, duration : 42 ms (1.00 video frame)
Interleave, preload duration : 504 ms
Title : Russian (AlexFilm)
Audio #2
ID : 2
Format : MPEG Audio
Format version : Version 1
Format profile : Layer 3
Mode : Joint stereo
Mode extension : MS Stereo
Codec ID : 55
Codec ID/Hint : MP3
Duration : 1h 36mn
Bit rate mode : Constant
Bit rate : 128 Kbps
Channel(s) : 2 channels
Sampling rate : 48.0 KHz
Compression mode : Lossy
Stream size : 87.9 MiB (8%)
Alignment : Aligned on interleaves
Interleave, duration : 42 ms (1.00 video frame)
Interleave, preload duration : 504 ms
Title : English
[Профиль]  [ЛС] 
Похожие темы
Форум Тема Автор Размер
Аудиокниги Корнев Павел , Круз Андрей - "Хмель и Клондайк" Oldket 862 MB
Показать сообщения:    
Ответить на тему

Текущее время: 06-Дек 08:45

Часовой пояс: UTC + 3



Вы не можете начинать темы
Вы не можете отвечать на сообщения
Вы не можете редактировать свои сообщения
Вы не можете удалять свои сообщения
Вы не можете голосовать в опросах
Вы не можете прикреплять файлы к сообщениям
Вы не можете скачивать файлы