Мутанты Икс / Mutant X (1-3 сезон: 1-66 серий из 66) ( Эндрю Поттер, Терри Ингрэм, Кен Джиротти) [2001-2004 г., Фантастика, фэнтези, боевик, драма, приключения, DVDRip ] MVO

Ответить на тему
Статистика раздачи [Обновить пиров]
Качаю: [ 1 ]
Скачал: [ 2 ]
 
   
 
 
Автор
Сообщение

mihis ®

Стаж: 2 года 1 месяц

Сообщений: 221

Создавать темы 30-Окт-2014 12:33

[Цитировать] 

Мутанты Икс / Mutant X3 сезона: 66 серий Год выпуска: 2001-2004
Страна: США, Канада, Fireworks Entertainment, Marvel Studios Inc., Mutant X Productions Ltd., Tribune Entertainment
Жанр: Фантастика, фэнтези, боевик, драма, приключения
Продолжительность: 66 x ~ 00:42:00
Перевод: Профессиональный (многоголосый, закадровый)
Субтитры: нет
Режиссер: Эндрю Поттер, Терри Ингрэм, Кен Джиротти
В ролях: Виктория Прэтт, Форбс Марч, Виктор Уэбстер, Джон Ши, Лоурен Ли Смит, Том МакКэмус, Карен Клише, Джордж Бьюза, Эндрю Гиллис, Майкл Истон, Джеймс Бинкли, Джефф Сеймур, Дуглас О’Киффи, Тед Уиттэлл, Дебора Оделл, Мэттью МакФадзин, Чак Бирн, Шон Орр, Ингрид Харт, Ричард Стро, Джозеф Скорен, Ноа Дэнби, Лайрик Бент, Брэд Гаррик, Кевин Раштон, Десмонд Кэмпбелл, Дэвид Фриш, Дэвид Дж. МакНил, Джессика Барлоу, Седрик Смит, Шон Белл, Кевин Хикс, Лорни Ханчак, Дилан Бирк, Росс Халл, Александр Перваков, Элисон Маклеод, Питер Ван Варт
Описание: Сериал «Мутанты Икс» повествует о приключениях людей — мутантов, ставших изгоями в результате экспериментов, проводящихся в области генной инженерии. Вследствие научных опытов, тайно проводимых по заданию правительства, они приобретают сверхъестественные силы и способности. Понимая, что ситуация выходит из-под контроля, организация, по приказу которой были созданы эти супермены, теперь пытается уничтожить своих «детей». Один из ученых, принимающий непосредственное участие в разработке программы, Адам, решает помочь мутантам. Он создает команду, состоящую из четырех мутантов, так называемую команду «Мутанты Икс». Цель этой команды искать своих соплеменников, чтобы помочь им принять и научиться управлять своими экстраординарными возможностями, а также защитить их от своих же создателей, в частности от одного из коллег Адама, Мейсона Экхарта.

Качество: DVDRip
Формат: AVI
Видео кодек: XviD
Аудио кодек: AC3
Видео: XviD, 720x400 (16:9), 25.000 fps, 1 529 Kbps (0.212 bit/pixel)
Аудио: AC3, 48.0 KHz, 2 ch, 192 Kbps, CBR

Название серий

Сезон 1
1. Шок от новости / The Shock of the New (Pilot)
2. Где ты, человек-молния? / I Scream the Body Electric
3. Русская рулетка / Russian Roulette
4. Безумная любовь / Fool for Love
5. Килогерц / Kilohertz
6. Значение смерти / Meaning of Death
7. Огненный заряд / Lit Fuse
8. В присутствии моих врагов / In the Presence of Mine Enemies
9. Преступление нового века / Crime of the New Century
10. Восход черной звезды / Dark Star Rising
11. Бледная тень невидимки / Whiter Shade of Pale
12. Раздвоение личности / Double Vision
13. Узы крови / Blood Ties
14. Измененная личность / Altered Ego
15. Синдром Лазаря / Lazarus Syndrome
16. Диалог с компьютером / Interface
17. Презумпция невиновности / Presumed Guilty
18. Старые друзья / Ex Marks the Spot
19. Без страха / Nothing to Fear
20. Смертельное желание / Deadly Desire
21. Новая раса / A Breed Apart
22. Танцуя по лезвию бритвы / Dancing on the Razor
Сезон 2
1. Прошлое как пролог / Past as Prologue
2. Игра силы / Power Play
3. Отмеренное время / Time Squared
4. Чьи это леса / Whose Woods These Are
5. Будущее проявилось / The Future Revealed
6. Никого не осталось позади / No Man Left Behind
7. Перекрестки души / Crossroads of the Soul
8. Знак свыше / Sign from Above
9. Тело и душа / Body and Soul
10. Дублер / Understudy
11. Подарок / The Grift
12. На краю судьбы / At Destiny's End
13. В этих стенах / Within These Walls
14. Трудное время / Hard Time
15. Под покровом войны / Under the Cloak of War
16. Повторное действие / Once Around
17. Окончательное решение / Final Judgment
18. Инферно / Inferno
19. На шаг ближе / One Step Closer
20. Проверка реальности / Reality Check
21. Повторное пробуждение / Reawakening
22. Предотвратить / Lest He Become
Сезон 3
1. Безлунной ночью / Into the Moonless Night
2. Расплата за грехи / Wages of Sin
3. Зараза / The Breed
4. Там, где таится зло / Where Evil Dwells
5. Взятие ворон / The Taking of Crows
6. Тени темноты / Shadows of Darkness
7. Рука Бога / The Hand of God
8. Пустыня / Wasteland
9. Выхода нет / No Exit
10. Хранитель брата / Brother's Keeper
11. Возможности / Possibilities
12. Теория заговора / Conspiracy Theory
13. Искусство привлекательности / Art of Attraction
14. Нормальная жизнь / A Normal Life
15. Разделенные привязанности / Divided Loyalties
16. Возраст невиновности / Age of Innocence
17. Она становится другой / She's Come Undone
18. Посередине / In Between
19. Возлюбленный из мечты / Dream Lover
20. Предсказание / The Prophecy
21. Цирк чудес / Cirque des Merveilles
22. Нападение / The Assault

Награды

Сатурн, 2004 год
Номинации (1):
Лучшая актриса второго плана в телесериале (Виктория Прэтт)
Сатурн, 2003 год
Номинации (1):
Лучший телесериал, созданный для кабельного телевидения

MediaInfo

Общее
Полное имя : I:\Video\Mutant.X.(1-3.sezony.66.serii.iz.66).2001-2004.XviD.DVDRip-biggross\Mutant.X.(2.sezon.22.serii.iz.22).2002-2003.XviD.DVDRip-biggross\Mutant X s02e04 Whose Woods These Are.avi
Формат : AVI
Формат/Информация : Audio Video Interleave
Размер файла : 554 Мбайт
Продолжительность : 42 м.
Общий поток : 1802 Кбит/сек
Программа кодирования : VirtualDubMod 1.5.10.3 | www.virtualdub-fr.org || (build 2550/release)
Библиотека кодирования : VirtualDubMod build 2550/release
Видео
Идентификатор : 0
Формат : MPEG-4 Visual
Профиль формата : Advanced [email protected]
Параметр BVOP формата : 2
Параметр QPel формата : Нет
Параметр GMC формата : Без точки перехода
Параметр матрицы формата : Default (H.263)
Идентификатор кодека : XVID
Идентификатор кодека/Подсказка : XviD
Продолжительность : 42 м.
Битрейт : 1529 Кбит/сек
Ширина : 720 пикселей
Высота : 400 пикселей
Соотношение сторон : 16:9
Частота кадров : 25,000 кадров/сек
Цветовое пространство : YUV
Субдискретизация насыщенности : 4:2:0
Битовая глубина : 8 бит
Тип развёртки : Прогрессивная
Метод сжатия : С потерями
Бит/(Пиксели*Кадры) : 0.212
Размер потока : 470 Мбайт (85%)
Библиотека кодирования : XviD 1.2.1 (UTC 2008-12-04)
Аудио
Идентификатор : 1
Формат : AC-3
Формат/Информация : Audio Coding 3
Расширение режима : CM (complete main)
Параметр Endianness формата : Big
Идентификатор кодека : 2000
Продолжительность : 42 м.
Вид битрейта : Постоянный
Битрейт : 192 Кбит/сек
Каналы : 2 канала
Расположение каналов : Front: L R
Частота : 48,0 КГц
Битовая глубина : 16 бит
Метод сжатия : С потерями
Размер потока : 59,0 Мбайт (11%)
Выравнивание : Разделение по промежуткам
[Профиль]  [ЛС] 
Похожие темы
Форум Тема Автор Размер
Аудиокниги Левицкий Андрей - "Тропами мутантов"(S.T.A.L.K.E.R.) Oldket 876 MB
Аудиокниги Ночкин Виктор , Левицкий Андрей - "Череп Мутанта" (S.T.A.L.K.E.R.) [HANTER-45, 2011] Oldket 889 MB
Аудиокниги Тумановский Ежи - "Два мутанта"(S.T.A.L.K.E.R) [Александр Ильинский, 2013] Oldket 945 MB
Показать сообщения:    
Ответить на тему

Текущее время: 10-Дек 17:32

Часовой пояс: UTC + 3



Вы не можете начинать темы
Вы не можете отвечать на сообщения
Вы не можете редактировать свои сообщения
Вы не можете удалять свои сообщения
Вы не можете голосовать в опросах
Вы не можете прикреплять файлы к сообщениям
Вы не можете скачивать файлы