Поворот / Turn (1 сезон: 1-10 серии из 10) (Ник Копус, Руперт Уайатт) [2014 г., Драма, экранизация, WEB-DLRip] MVO Baibaкo

Ответить на тему
Статистика раздачи [Обновить пиров]
Нет
 
   
 
 
Автор
Сообщение

mihis ®

Стаж: 2 года 1 месяц

Сообщений: 221

Создавать темы 30-Окт-2014 12:38

[Цитировать] 

Поворот / Turn10 серии Год выпуска: 2014
Страна: США, AMC Studios
Жанр: Драма, экранизация
Продолжительность: 10 х ~ 00:55:00
Перевод: Профессиональный (многоголосый, закадровый) Baibaкo + Оригинал
Субтитры: нет
Режиссер: Ник Копус, Руперт Уайатт
В ролях: Томас Кигэн, Люк Ван Берген, Майкл Гэстон, Дж.Е. Мацер, Билли Кобб, Джеймс Невинс, Майк Стивенс, Нэйтан Фергюсон
Описание: События, основанные на книге писателя и историка Александра Роуза, сериала «Поворот» (Turn) происходят в 1778 году. Нью-йоркский фермер, который живет на захваченном британцами острове Лонг-Айленд, решает помочь своим соотечественникам в борьбе за независимость. Герой сериала собирает вокруг себя группу друзей детства, с помощью которых организовывает шпионскую сеть, призванную предоставлять информацию Джорджу Вашингтону. Эта удивительная успешная шпионская сеть в конце концов оказала огромное влияние на ход американской войны за независимость.

Качество: WEB-DLRip
Формат: AVI
Видео кодек: XviD
Аудио кодек: MP3
Видео: 720x400 (1.80:1), 23.976 fps, XviD build 50 ~1500 kbps avg, 0.22 bit/pixel
Аудио #1: 48 kHz, MPEG Layer 3, 2 ch, ~192.00 kbps avg
Аудио #2: 48 kHz, MPEG Layer 3, 2 ch, ~192.00 kbps avg

Название серий

01. Пилот / Pilot
02. Кто в огне? / Who by Fire
03. Из "Королей и капусты" / Of Cabbages and Kings
04. Длиною в вечность / Eternity How Long
05. Прозрение / Epiphany
06. Мистер Калпепер / Mr. Culpeper
07. Милосердия момент - мера убийства / Mercy Moment Murder Measure
08. Сложнейшая задача / Challenge
09. На ближнего твоего / Against Thy Neighbor
10. Битва за Сетокет / The Battle of Setauket

MediaInfo

General
Complete name : K:\Video\Turn.s01e01.WEB-DLRip.XviD.Rus.Eng.BaibaKo.tv.avi
Format : AVI
Format/Info : Audio Video Interleave
File size : 880 MiB
Duration : 1h 4mn
Overall bit rate : 1 899 Kbps
Writing application : VirtualDubMod 1.5.10.2 (build 2540/release)
Writing library : VirtualDubMod build 2540/release
Video
ID : 0
Format : MPEG-4 Visual
Format profile : Advanced [email protected]
Format settings, BVOP : 2
Format settings, QPel : No
Format settings, GMC : No warppoints
Format settings, Matrix : Default (H.263)
Codec ID : XVID
Codec ID/Hint : XviD
Duration : 1h 4mn
Bit rate : 1 502 Kbps
Width : 720 pixels
Height : 400 pixels
Display aspect ratio : 16:9
Frame rate : 23.976 fps
Color space : YUV
Chroma subsampling : 4:2:0
Bit depth : 8 bits
Scan type : Progressive
Compression mode : Lossy
Bits/(Pixel*Frame) : 0.217
Stream size : 696 MiB (79%)
Writing library : XviD 1.2.1 (UTC 2008-12-04)
Audio #1
ID : 1
Format : MPEG Audio
Format version : Version 1
Format profile : Layer 3
Mode : Joint stereo
Mode extension : MS Stereo
Codec ID : 55
Codec ID/Hint : MP3
Duration : 1h 4mn
Bit rate mode : Constant
Bit rate : 192 Kbps
Channel(s) : 2 channels
Sampling rate : 48.0 KHz
Compression mode : Lossy
Stream size : 88.9 MiB (10%)
Alignment : Aligned on interleaves
Interleave, duration : 42 ms (1.00 video frame)
Interleave, preload duration : 504 ms
Audio #2
ID : 2
Format : MPEG Audio
Format version : Version 1
Format profile : Layer 3
Mode : Joint stereo
Mode extension : MS Stereo
Codec ID : 55
Codec ID/Hint : MP3
Duration : 1h 4mn
Bit rate mode : Constant
Bit rate : 192 Kbps
Channel(s) : 2 channels
Sampling rate : 48.0 KHz
Compression mode : Lossy
Stream size : 88.9 MiB (10%)
Alignment : Aligned on interleaves
Interleave, duration : 42 ms (1.00 video frame)
Interleave, preload duration : 504 ms
[Профиль]  [ЛС] 
Похожие темы
Форум Тема Автор Размер
Отечественные сериалы Крутые повороты/Таксист/Монах [Серии: 1-12 из 12] (Марат Рафиков, Владимир Донсков, Сергей Осипьян, Андрей Лукашевич) [2003 г., боевик, DVDRip] anatolyi100 4,09 GB
Зарубежное кино Поворот не туда 6: Последний курорт / Wrong Turn 6: Last Resort (Валерий Милев / Valeri Milev) [2014, США, ужасы, HDRip] (MVO) Otblesk 1,37 GB
Показать сообщения:    
Ответить на тему

Текущее время: 04-Дек 17:14

Часовой пояс: UTC + 3



Вы не можете начинать темы
Вы не можете отвечать на сообщения
Вы не можете редактировать свои сообщения
Вы не можете удалять свои сообщения
Вы не можете голосовать в опросах
Вы не можете прикреплять файлы к сообщениям
Вы не можете скачивать файлы