Титаник: Кровь и сталь / Titanic: Blood and Steel (1 сезон:1-12 серии из 12) (Киаран Доннелли) [2012 г., Драма, история, BDRip] MVO BaibaKo

Ответить на тему
Статистика раздачи [Обновить пиров]
Нет
 
   
 
 
Автор
Сообщение

mihis ®

Стаж: 2 года 1 месяц

Сообщений: 221

Создавать темы 30-Окт-2014 23:23

[Цитировать] 

Титаник: Кровь и сталь / Titanic: Blood and Steel«How the legend came into being.»12 СерийГод выпуска: 2012
Страна: Ирландия, Италия, Франция, Канада, Великобритания, Испания, Antena 3 Films, DAP Italy, De Angelis Group, Epos Films, Rai Fiction
Жанр: Драма, история
Продолжительность: 12 x ~ 00:55:00
Перевод: Профессиональный (многоголосый, закадровый) BaibaKo + Оригинал
Субтитры: нет
Режиссер: Киаран Доннелли
В ролях: Кевин Зегерс, Алессандра Мастронарди, Нив Кэмпбелл, Дерек Джекоби, Билли Картер, Массимо Гини, Валентина Корти, Герард МакКарти, Йен МакЭлхинни, Мартин МакКанн, Джонатан Форбс, Фрэнк Маккаскер, Офелия Ловибонд, Шарлотта Брэдли, Бэрри МакЭвой, Каолан Бирн, Брануэлл Донахи, Грэй О’Брайэн, Эдоардо Лео, Стефен Ганн, Томми О’нилл, Лиам Каннингэм, Майкл МакЭлхаттон, Элинор Метвин, Ив Маклин, Карл Шейлз, Кейт О’Тул, Джеймс Флинн, Пауль Хервиг, Лайам МакМахон, Крис Нот, Лайам Карни, Гэвин О’Коннор, Оуэн Шарп, Денис Гоф, Терри Бирн, Джонатан Харден
Описание: Главными действующими лицами сериала станут собственно создатели лайнера, заранее названного непотопляемым, вынужденные работать в атмосфере политического и финансового давления. Джейкоби сыграет владельца компании Harland & Wolff, со стапелей которой и сошел обреченный «четырехтрубник», Ноту предстоит перевоплотиться в финансиста Джей Пи Моргана, а Нив Кэмпбелл станет журналисткой, освещающей первое плавание «Титаника» и имеющей свои причины оказаться на борту.

Качество: BDRip
Формат: AVI
Видео кодек: XviD
Аудио кодек: MP3
Видео: XviD, 720x400 (16/9), 23.976 fps, 1 500 Kbps (0.217 bit/pixel)
Аудио : MP3, 48.0 KHz, 2 ch, 192 Kbps Rus, Eng

Список серий

01. A City Divided
02. Stained Steel
03. Good Man Down
04. Danger Looms
05. Under Lock and Key
06. The Imposter
07. The Truth Shall Set You Free
08. High Stakes
09. Burden of Proof
10. A Crack in the Armor
11. The Tipping Point
12. The 'Unsinkable' Sets Sail

MediaInfo

Titanic.Blood.and.Steel.2012.s01e01.BDRip.XviD.Rus.Eng.BaibaKo.tv.avi
Format : AVI
Format/Info : Audio Video Interleave
File size : 734 MiB
Duration : 54mn 15s
Overall bit rate : 1 891 Kbps
Video
ID : 0
Format : MPEG-4 Visual
Format profile : Advanced [email protected]
Format settings, BVOP : 2
Format settings, QPel : No
Format settings, GMC : No warppoints
Format settings, Matrix : Default (H.263)
Codec ID : XVID
Codec ID/Hint : XviD
Duration : 54mn 15s
Bit rate : 1 500 Kbps
Width : 720 pixels
Height : 400 pixels
Display aspect ratio : 16:9
Frame rate : 23.976 fps
Color space : YUV
Chroma subsampling : 4:2:0
Bit depth : 8 bits
Scan type : Progressive
Compression mode : Lossy
Bits/(Pixel*Frame) : 0.217
Stream size : 582 MiB (79%)
Writing library : XviD 1.2.1 (UTC 2008-12-04)
Audio #1
ID : 1
Format : MPEG Audio
Format version : Version 1
Format profile : Layer 3
Mode : Joint stereo
Codec ID : 55
Codec ID/Hint : MP3
Duration : 54mn 15s
Bit rate mode : Constant
Bit rate : 192 Kbps
Channel(s) : 2 channels
Sampling rate : 48.0 KHz
Compression mode : Lossy
Stream size : 74.5 MiB (10%)
Alignment : Aligned on interleaves
Interleave, duration : 167 ms (4.00 video frames)
Interleave, preload duration : 216 ms
Title : Titanic.Blood.and.Steel.2012.s01e01.BDRip.x264.Rus.Eng.Ger.BaibaKo.tv.mp4_track_1_russian_audio
Writing library : LAME3.99r
Encoding settings : -m j -V 4 -q 2 -lowpass 18.6 -b 192
Audio #2
ID : 2
Format : MPEG Audio
Format version : Version 1
Format profile : Layer 3
Mode : Joint stereo
Mode extension : MS Stereo
Codec ID : 55
Codec ID/Hint : MP3
Duration : 54mn 15s
Bit rate mode : Constant
Bit rate : 192 Kbps
Channel(s) : 2 channels
Sampling rate : 48.0 KHz
Compression mode : Lossy
Stream size : 74.5 MiB (10%)
Alignment : Aligned on interleaves
Interleave, duration : 167 ms (4.00 video frames)
Interleave, preload duration : 216 ms
Title : Titanic.Blood.and.Steel.2012.s01e01.BDRip.x264.Rus.Eng.Ger.BaibaKo.tv.mp4_track_2_english_audio
Writing library : LAME3.99r
[Профиль]  [ЛС] 
Похожие темы
Форум Тема Автор Размер
3D/Stereo фильмы Гнев Титанов в 3Д / Wrath of the Titans 3D (Джонатан Либесман / Jonathan Liebesman) [2012, фэнтези, боевик, приключения, Blu-ray Remux 1080p] BD3D bot 27,08 GB
Документальные Титаник (Анастасия Попова) [2012 г., Документальный, SATRip] tanya77 975 MB
Документальные Титаник. Последняя тайна (Ольга Артёмова) [2012 г., Документальный, TVRip] tanya77 608 MB
Сборники и Сиквелы Титаны - Дилогия: Битва Титанов / Clash of the Titans (2010), Гнев Титанов / Wrath of the Titans (2012) [720p] [hand made 60fps] F1eanor 15,26 GB
Показать сообщения:    
Ответить на тему

Текущее время: 09-Дек 01:05

Часовой пояс: UTC + 3



Вы не можете начинать темы
Вы не можете отвечать на сообщения
Вы не можете редактировать свои сообщения
Вы не можете удалять свои сообщения
Вы не можете голосовать в опросах
Вы не можете прикреплять файлы к сообщениям
Вы не можете скачивать файлы