Гетеры майора Соколова (8 серии из 8) (Бахтиёр Худойназаров) [2014 г., Драма, DVDRip] Лицензия

Ответить на тему
Статистика раздачи [Обновить пиров]
Нет
 
   
 
 
Автор
Сообщение

mihis ®

Стаж: 2 года 1 месяц

Сообщений: 221

Создавать темы 02-Ноя-2014 13:14

[Цитировать] 

Гетеры майора Соколова8 Серии Год выпуска: 2014
Страна: Россия, "Марс Медиа"
Жанр: Драма
Продолжительность: 8 x ~ 00:47:00
Перевод: Не требуется Лицензия
Субтитры: нет
Режиссер: Бахтиёр Худойназаров
В ролях: Андрей Панин, Сергей Гармаш, Артур Смольянинов, Филипп Янковский, Татьяна Лютаева, Дарья Мельникова, Аглая Тарасова, Мария Антонова (II), Анастасия Микульчина, Алиса Горшкова, Оксана Базилевич, Юлиана Ромашина (Оррен), Анатолий Гущин, Олег Флеер, Сергей Тэсслер (VII), Дмитрий Поднозов, Олег Тилькин
Описание: Сентябрь 1939 года. Начало Второй Мировой войны. В Крым приезжает майор советской разведки Соколов. Его главная цель – выявить агентурную сеть террористической антисоветской организации РОВС. Руководит контрразведкой Русского общевоинского союза - штабс-капитан Семенов, псевдоним Крест. Крест и Соколов – давние враги. Белые офицеры, в 1917 году они оказались по разные стороны баррикад. Они прекрасно знают друг друга в лицо, хотели бы и не один раз могли бы убить друг друга, но каждому из них нужна гибель системы, которую представляет противник. Оба – азартные игроки - они начинают сложную партию, в которой шансы на победу почти равны. Каждый из них готов жертвовать любыми фигурами, включая себя, ведь на кону - Родина. Одна. Но для каждого своя…

Качество: DVDRip
Формат: AVI
Видео кодек: XviD
Аудио кодек: AC3
Видео: 720x400 (16:9), 25.000 fps, XviD ~ 1800 kbps avg, 0.250 bit/pixel
Аудио: 48 kHz, Dolby AC3, 6 ch, 448 kbps

MediaInfo

Общее
Полное имя : Getery.mayora.Sokolova.2014.DVDRip_[New-Team]_by_avproh1.avi
Формат : AVI
Формат/Информация : Audio Video Interleave
Размер файла : 783 Мбайт
Продолжительность : 48 м.
Общий поток : 2258 Кбит/сек
Программа кодирования : VirtualDubMod 1.5.10.3 | www.virtualdub-fr.org || (build 2550/release)
Библиотека кодирования : VirtualDubMod build 2550/release
Видео
Идентификатор : 0
Формат : MPEG-4 Visual
Профиль формата : Advanced [email protected]
Параметр BVOP формата : 1
Параметр QPel формата : Нет
Параметр GMC формата : Без точки перехода
Параметр матрицы формата : Выборочная
Идентификатор кодека : XVID
Идентификатор кодека/Подсказка : XviD
Продолжительность : 48 м.
Битрейт : 1800 Кбит/сек
Ширина : 720 пикселей
Высота : 400 пикселей
Соотношение сторон : 16:9
Частота кадров : 25,000 кадров/сек
Цветовое пространство : YUV
Субдискретизация насыщенности : 4:2:0
Битовая глубина : 8 бит
Тип развёртки : Прогрессивная
Метод сжатия : С потерями
Бит/(Пиксели*Кадры) : 0.250
Размер потока : 624 Мбайт (80%)
Библиотека кодирования : XviD 73
Аудио
Идентификатор : 1
Формат : AC-3
Формат/Информация : Audio Coding 3
Расширение режима : CM (complete main)
Параметр Endianness формата : Big
Идентификатор кодека : 2000
Продолжительность : 48 м.
Вид битрейта : Постоянный
Битрейт : 448 Кбит/сек
Каналы : 6 каналов
Расположение каналов : Front: L C R, Side: L R, LFE
Частота : 48,0 КГц
Битовая глубина : 16 бит
Метод сжатия : С потерями
Размер потока : 155 Мбайт (20%)
Выравнивание : Разделение по промежуткам
Продолжительность промежутка : 40 мс. (1,00 видеокадр)
Время предзагрузки промежутка : 500 мс.
[Профиль]  [ЛС] 
Показать сообщения:    
Ответить на тему

Текущее время: 10-Дек 11:50

Часовой пояс: UTC + 3



Вы не можете начинать темы
Вы не можете отвечать на сообщения
Вы не можете редактировать свои сообщения
Вы не можете удалять свои сообщения
Вы не можете голосовать в опросах
Вы не можете прикреплять файлы к сообщениям
Вы не можете скачивать файлы