Зона. Тюремный роман / Серии: 50 из 50 (Петр Штейн) [2006 г., Тюремный роман, 12х DVD9]

Ответить на тему
Статистика раздачи [Обновить пиров]
Нет
 
   
 
 
Автор
Сообщение

mihis ®

Стаж: 2 года 1 месяц

Сообщений: 221

Создавать темы 02-Ноя-2014 13:27

[Цитировать] 

Зона. Тюремный роман
50 серий

Год выпуска: 2006
Производство: Россия, World Studios
Жанр: Тюремный роман
Продолжительность: 50 х 00:44:04
Перевод: Не требуется
Режиссёр: Петр Штейн
В ролях: Александр Тараньжин, Олег Протасов, Игорь Карташе, Игорь Филиппов, Луиза Мосендз, Адам Чекман, Андрей Филиппак, Сергей Моложае, Вадим Медведев, Олег Гераськин, Федор Малышев, Дмитрий Супонин, Александр Батрак, Виктор Коношенков, Алексей Агрызков, Лара Чаклин, Эдуард Федашко, Сергей Иванов, Ромуальд Вильдан, Николай Ковбас, Даниил Грецов, Андрей Семенов, Руслан Кулешов, Роман Данилычев
Описание: Фильм основан на реальных шокирующих историях, записанных в зонах, тюрьмах и пересылочных пунктах страны. Жестокая сущность зоны с ее порядками, чудовищной иерархией, скрытыми преступлениями предстанет перед зрителями во всех подробностях и с максимальной степенью достоверности. Начало проекту дала рукопись, которую, минуя тюремную цензуру, передали на студию люди, находящиеся «по ту сторону решетки». К созданию сериала подключилась группа специальных сценаристов. Впервые в истории мирового кино и телевидения в проекте, помимо актеров, участвуют настоящие заключенные.

Качество: 12х DVD9
Формат: DVD Video
Видео кодек: MPEG2
Аудио кодек: AC3
Видео: PAL 4:3 (720x576) VBR
Аудио: Russian Dolby AC3, 5 ch

DVDInfo

Title: Zona.01-04
Size: 7.39 Gb ( 7 751 234,00 KBytes ) - DVD-9
Enabled regions: 1, 2, 3, 4, 5, 6
VTS_01 :
Play Length: 00:00:15
Video: PAL 4:3 (720x576) VBR
Audio:
Russian (Dolby AC3, 2 ch)
VTS_02 :
Play Length: 00:00:22
Video: PAL 4:3 (720x576) VBR
Audio:
Russian (Dolby AC3, 5 ch)
VTS_03 :
Play Length: 00:44:44
Video: PAL 4:3 (720x576) VBR
Audio:
Russian (Dolby AC3, 5 ch)
VTS_04 :
Play Length: 00:44:43
Video: PAL 4:3 (720x576) VBR
Audio:
Russian (Dolby AC3, 5 ch)
VTS_05 :
Play Length: 00:44:47
Video: PAL 4:3 (720x576) VBR
Audio:
Russian (Dolby AC3, 5 ch)
VTS_06 :
Play Length: 00:44:40
Video: PAL 4:3 (720x576) VBR
Audio:
Russian (Dolby AC3, 5 ch)
* Menus Information *
VIDEO_TS Menu
Video:
PAL 4:3 (720x576) VBR
English Language Unit :
Title Menu
VTS_01 Menu
Video:
PAL 4:3 (720x576) VBR
Audio:
Not specified (Dolby AC3, 2 ch)
English Language Unit :
Root Menu
VTS_02 Menu
Video:
PAL 4:3 (720x576) VBR
English Language Unit :
Root Menu
VTS_03 Menu
Video:
PAL 4:3 (720x576) VBR
English Language Unit :
Root Menu
VTS_04 Menu
Video:
PAL 4:3 (720x576) VBR
English Language Unit :
Root Menu
VTS_05 Menu
Video:
PAL 4:3 (720x576) VBR
English Language Unit :
Root Menu
VTS_06 Menu
Video:
PAL 4:3 (720x576) VBR
English Language Unit :
Root Menu

MediaInfo

Complete name : D:\Video\Zona.Turemnyi.roman.(50.seriy.iz.50).2006.12xDVD-9\Zona.01-04\VIDEO_TS\VTS_03_1.VOB
Format : MPEG-PS
File size : 1 024 MiB
Duration : 24mn 59s
Overall bit rate mode : Variable
Overall bit rate : 5 730 Kbps
Video
ID : 224 (0xE0)
Format : MPEG Video
Format version : Version 2
Format profile : [email protected]
Format settings, BVOP : Yes
Format settings, Matrix : Custom
Format settings, GOP : M=2, N=12
Duration : 24mn 59s
Bit rate mode : Variable
Bit rate : 5 167 Kbps
Maximum bit rate : 8 000 Kbps
Width : 720 pixels
Height : 576 pixels
Display aspect ratio : 4:3
Frame rate : 25.000 fps
Standard : PAL
Color space : YUV
Chroma subsampling : 4:2:0
Bit depth : 8 bits
Scan type : Interlaced
Scan order : Top Field First
Compression mode : Lossy
Bits/(Pixel*Frame) : 0.498
Stream size : 923 MiB (90%)
Audio
ID : 189 (0xBD)-128 (0x80)
Format : AC-3
Format/Info : Audio Coding 3
Mode extension : CM (complete main)
Format settings, Endianness : Big
Muxing mode : DVD-Video
Duration : 24mn 58s
Bit rate mode : Constant
Bit rate : 448 Kbps
Channel(s) : 5 channels
Channel positions : Front: L C R, Side: L R
Sampling rate : 48.0 KHz
Bit depth : 16 bits
Compression mode : Lossy
Stream size : 80.0 MiB (8%)

Скриншоты меню


[Профиль]  [ЛС] 
Похожие темы
Форум Тема Автор Размер
Отечественные сериалы Зона. Тюремный роман (Серии: 50 из 50) (Петр Штейн) [2006 г., Тюремный роман, DVDRip] mihis 34,2 GB
Показать сообщения:    
Ответить на тему

Текущее время: 05-Дек 11:28

Часовой пояс: UTC + 3



Вы не можете начинать темы
Вы не можете отвечать на сообщения
Вы не можете редактировать свои сообщения
Вы не можете удалять свои сообщения
Вы не можете голосовать в опросах
Вы не можете прикреплять файлы к сообщениям
Вы не можете скачивать файлы