Истребители (1-2 сезон: 24 серий из 24) (Алексей Мурадов) [2013-2015 г., Военный фильм, драма, WEB-DLRip-AVC]

Ответить на тему
Статистика раздачи [Обновить пиров]
Качаю: [ 1 ]
Скачал: [ 3 ]
 
   
 
 
Автор
Сообщение

mihis ®

Стаж: 2 года 1 месяц

Сообщений: 221

Создавать темы 02-Ноя-2014 13:32

[Цитировать] 

Истребители24 СерииГод выпуска: 2013-2015
Страна: Россия, "Star Media"
Жанр: Военный фильм, драма
Продолжительность: 24 x ~ 00:50:00
Перевод: Не требуется
Режиссер: Алексей Мурадов, Зиновий Ройзман
В ролях: Екатерина Вилкова, Дмитрий Дюжев, Николай Козак, Любовь Руденко, Олег Фомин, Юрий Яковлев-Суханов, Мария Андреева, Виталий Махов, Денис Варенов, Антон Соколов, Дмитрий Арбенин, Александр Корчагин, Екатерина Рябова, Владимир Большов, Иван Гар, Игорь Арташонов, Дарья Кривцова, Андрей Мясников, Азамат Нигманов, Антон Соколов (II), Сергей Шеховцов, Алексей Каничев, Алексей Потапкин, Денис Константинов, Петр Никищихин, Леонид Орлов, Алексей Секирин, Денис Березин, Петр Рыков, Александр Ананьев, Артём Федотов
Описание:
1 сезон
СССР. В разгаре Великая Отечественная Война. Молодые летчики Леонид и Борис по прибытии в летную школу узнают, что они зачислены в авиационный полк и в ближайшее время их отправят на фронт. В полку они знакомятся со своими старшими товарищами и будущими наставниками: боевым летчиком-асом Лидией Литовченко, опытным летчиком Ильей Бестужевым, командиром полка Канищевым) и красавицей-летчицей Евгенией. Молодые люди пока не подозревают, какую роль в их судьбе суждено сыграть новым знакомым...
2 сезон
Продолжение грандиозной военной драмы "Истребители" о подвиге летчиков военной авиации времен Великой Отечественной войны, о дружбе, скрепленной кровью, мужестве и настоящей любви. В центре повествования - смешанный летный полк, в котором служат не только мужчины, но и отважные летчики-женщины. Летчика Илью Бестужева вызывают в главный штаб, где повышают в звании до подполковника и приказывают сформировать собственный полк на базе новейших истребителей ЯК-3. Он отправляется в Москву и встречается со своим бывшим ведомым, ныне героем Советского Союза – летчиком Леонидом Шугаевым. Леонид знакомит его со своей девушкой – певицей Аллой Лазуркевич и ее подругой – примой Большого театра Лидой Серебрянской. Лида с первого взгляда влюбляется в Бестужева, но он не может ответить на ее чувства. Ведь он верит, что однажды сможет разыскать свою давнюю любовь – летчицу Евгению Дементьеву, с которой потерял связь на фронте. Бестужев отправляется на передовую и после обустройства на новом месте принимает пополнение – пять девушек. Между тем в воздухе идут тяжелые бои, советские летчики никак не могут преодолеть загадочную немецкую оборону, которая мешает продвижению нашей армии. Бестужеву предстоит сложнейшая задача – любой ценой разгадать секретный план немцев под названием "Восточная шкатулка"...

Качество: WEB-DLRip-AVC
Формат: MKV
Видео кодек: H.26x
Аудио кодек: AC3
Видео: AVC, 1024x576 (16:9), 25.000 fps, 2 300 Kbps (0.139 bit/pixel)
Аудио: AC-3, 44.1 KHz, 2 ch, 192 Kbps

MediaInfo

Istrebiteli.(01.seriya.iz.12).2013.AVC.tahiy.mkv
Format : Matroska
Format version : Version 2
File size : 690 MiB
Duration : 42mn 59s
Overall bit rate : 2 244 Kbps
Movie name : - = Rip by tahiy = -
Encoded date : UTC 2013-04-23 19:32:17
Writing application : mkvmerge v4.0.0 ('The Stars were mine') сборка от Jun 6 2010 16:18:42
Writing library : libebml v1.0.0 + libmatroska v1.0.0
Video
ID : 1
Format : AVC
Format/Info : Advanced Video Codec
Format profile : [email protected]
Format settings, CABAC : Yes
Format settings, ReFrames : 8 frames
Codec ID : V_MPEG4/ISO/AVC
Duration : 42mn 59s
Bit rate : 2 050 Kbps
Width : 1 024 pixels
Height : 576 pixels
Display aspect ratio : 16:9
Frame rate : 25.000 fps
Color space : YUV
Chroma subsampling : 4:2:0
Bit depth : 8 bits
Scan type : Progressive
Bits/(Pixel*Frame) : 0.139
Stream size : 617 MiB (89%)
Title : - = Rip by tahiy = -
Writing library : x264 core 129 r2245 bc13772
Encoding settings : cabac=1 / ref=8 / deblock=1:-2:-1 / analyse=0x3:0x133 / me=hex / subme=9 / psy=1 / psy_rd=1.00:0.20 / mixed_ref=1 / me_range=16 / chroma_me=1 / trellis=2 / 8x8dct=1 / cqm=0 / deadzone=21,11 / fast_pskip=0 / chroma_qp_offset=-3 / threads=3 / lookahead_threads=1 / sliced_threads=0 / nr=0 / decimate=1 / interlaced=0 / bluray_compat=0 / constrained_intra=0 / bframes=3 / b_pyramid=2 / b_adapt=1 / b_bias=0 / direct=3 / weightb=1 / open_gop=0 / weightp=2 / keyint=250 / keyint_min=25 / scenecut=40 / intra_refresh=0 / rc_lookahead=40 / rc=2pass / mbtree=1 / bitrate=2050 / ratetol=1.0 / qcomp=0.60 / qpmin=10 / qpmax=51 / qpstep=4 / cplxblur=20.0 / qblur=0.5 / ip_ratio=1.40 / aq=1:1.00
Language : English
Default : Yes
Forced : Yes
Audio
ID : 2
Format : AC-3
Format/Info : Audio Coding 3
Mode extension : CM (complete main)
Format settings, Endianness : Big
Codec ID : A_AC3
Duration : 42mn 59s
Bit rate mode : Constant
Bit rate : 192 Kbps
Channel(s) : 2 channels
Channel positions : Front: L R
Sampling rate : 44.1 KHz
Bit depth : 16 bits
Compression mode : Lossy
Stream size : 59.0 MiB (9%)
Language : Russian
Default : Yes
Forced : Yes
Общее
Уникальный идентификатор : 202461238922926217234725408605094138160 (0x98509DC357AEFF56AAF53A8A94ADD130)
Полное имя : C:\Istrebiteli-2.Posledniy.boy.2015.WEB-DLRip.AVC.by_bog3417\Istrebiteli-2.Posledniy.boy.(03.seriya.iz.12).2015.WEB-DLRip.AVC.by_bog3417.mkv
Формат : Matroska
Версия формата : Version 2
Размер файла : 916 Мбайт
Продолжительность : 51 м.
Общий поток : 2494 Кбит/сек
Название фильма : by_bog3417
Дата кодирования : UTC 2015-05-04 19:41:50
Программа кодирования : mkvmerge v7.4.0 ('Circles') 64bit built on Dec 12 2014 12:19:56
Библиотека кодирования : libebml v1.3.0 + libmatroska v1.4.1
DURATION : 00:51:20.736000000
NUMBER_OF_FRAMES : 96273
NUMBER_OF_BYTES : 73937664
_STATISTICS_WRITING_APP : mkvmerge v7.4.0 ('Circles') 64bit built on Dec 12 2014 12:19:56
_STATISTICS_WRITING_DATE_UTC : 2015-05-04 19:41:50
_STATISTICS_TAGS : BPS DURATION NUMBER_OF_FRAMES NUMBER_OF_BYTES
Видео
Идентификатор : 1
Формат : AVC
Формат/Информация : Advanced Video Codec
Профиль формата : [email protected]
Параметр CABAC формата : Да
Параметр ReFrames формата : 9 кадров
Идентификатор кодека : V_MPEG4/ISO/AVC
Продолжительность : 51 м.
Битрейт : 2300 Кбит/сек
Ширина : 1024 пикселя
Высота : 576 пикселей
Соотношение сторон : 16:9
Режим частоты кадров : Постоянный
Частота кадров : 25,000 кадров/сек
Цветовое пространство : YUV
Субдискретизация насыщенности : 4:2:0
Битовая глубина : 8 бит
Тип развёртки : Прогрессивная
Бит/(Пиксели*Кадры) : 0.156
Размер потока : 827 Мбайт (90%)
Библиотека кодирования : x264 core 146 r2538 121396c
Настройки программы : cabac=1 / ref=9 / deblock=1:-3:-3 / analyse=0x3:0x33 / me=umh / subme=11 / psy=1 / psy_rd=1.00:0.15 / mixed_ref=1 / me_range=32 / chroma_me=1 / trellis=2 / 8x8dct=1 / cqm=0 / deadzone=21,11 / fast_pskip=0 / chroma_qp_offset=-3 / threads=12 / lookahead_threads=2 / sliced_threads=0 / nr=0 / decimate=0 / interlaced=0 / bluray_compat=0 / constrained_intra=0 / bframes=9 / b_pyramid=2 / b_adapt=2 / b_bias=0 / direct=3 / weightb=1 / open_gop=1 / weightp=2 / keyint=250 / keyint_min=23 / scenecut=40 / intra_refresh=0 / rc_lookahead=60 / rc=2pass / mbtree=1 / bitrate=2300 / ratetol=1.0 / qcomp=0.60 / qpmin=0 / qpmax=69 / qpstep=4 / cplxblur=20.0 / qblur=0.5 / ip_ratio=1.40 / aq=3:0.90
Язык : English
Default : Да
Forced : Нет
DURATION : 00:51:20.680000000
NUMBER_OF_FRAMES : 77017
NUMBER_OF_BYTES : 885660347
_STATISTICS_WRITING_APP : mkvmerge v7.4.0 ('Circles') 64bit built on Dec 12 2014 12:19:56
_STATISTICS_WRITING_DATE_UTC : 2015-05-04 19:41:50
_STATISTICS_TAGS : BPS DURATION NUMBER_OF_FRAMES NUMBER_OF_BYTES
Аудио
Идентификатор : 2
Формат : AC-3
Формат/Информация : Audio Coding 3
Расширение режима : CM (complete main)
Параметр Endianness формата : Big
Идентификатор кодека : A_AC3
Продолжительность : 51 м.
Вид битрейта : Постоянный
Битрейт : 192 Кбит/сек
Каналы : 2 канала
Расположение каналов : Front: L R
Частота : 48,0 КГц
Битовая глубина : 16 бит
Метод сжатия : С потерями
Размер потока : 70,5 Мбайт (8%)
Язык : Russian
Default : Да
Forced : Да


Последний раз редактировалось: mihis (2015-05-09 12:07), всего редактировалось 1 раз
[Профиль]  [ЛС] 

mihis ®

Стаж: 2 года 1 месяц

Сообщений: 221

Создавать темы 09-Май-2015 12:06 (спустя 6 месяцев 6 дней)

[Цитировать] 

Торрент обновлен.Добавлен: 2 сезон 12 серий
[Профиль]  [ЛС] 
Похожие темы
Форум Тема Автор Размер
Отечественные сериалы Истребители - 2. Последний бой (2 сезон: 1-12 серия из 12) ( Зиновий Ройзман) [2015, Драма, военный, WEB-DL (1080p)] Serega624 14,55 GB
Отечественные сериалы Истребители: Последний бой (2 сезон: 1-12 серии из 12) (Зиновий Ройзман) [2015 г., Военный фильм, драма, WEB-DLRip] mihis 7,62 GB
HD Трансформеры: Эпоха истребления / Transformers: Age of Extinction (2014) BDRip 1080p | Чистый звук Lost_Mind 11,37 GB
Зарубежное кино Трансформеры: Эпоха истребления / Transformers: Age Of Extinction (Майкл Бэй) [2014, США, Китай, Фантастика, боевик, приключения, BDRip | Звук с TS] ЗвЕрЁк 2,6 GB
Зарубежное кино Трансформеры: Эпоха истребления / Transformers: Age Of Extinction (Майкл Бэй) [2014, США, Китай, Фантастика, боевик, приключения, TS] Олег_SevStar 2,9 GB
3D/Stereo фильмы Трансформеры: Эпоха истребления в 3Д / Transformers: Age of Extinction 3D (Майкл Бэй / Michael Bay) [2014, Фантастика, боевик, приключения, BDrip, 1080p] OverUnder / Вертикальная стереопара bot 31,08 GB
Показать сообщения:    
Ответить на тему

Текущее время: 03-Дек 05:24

Часовой пояс: UTC + 3



Вы не можете начинать темы
Вы не можете отвечать на сообщения
Вы не можете редактировать свои сообщения
Вы не можете удалять свои сообщения
Вы не можете голосовать в опросах
Вы не можете прикреплять файлы к сообщениям
Вы не можете скачивать файлы