Пятницкий. Глава четвертая (1-32 серии из 32) (Григорий Фёдоров, Олег Галин) [2014 г., Драма, криминал, SATRip]

Ответить на тему
Статистика раздачи [Обновить пиров]
Скачал: [ 2 ]
 
   
 
 
Автор
Сообщение

mihis ®

Стаж: 2 года 1 месяц

Сообщений: 221

Создавать темы 03-Ноя-2014 23:44

[Цитировать] 

Пятницкий. Глава четвертая32 серии Год выпуска: 2014
Страна: Россия, "Dixi", ООО "Фильм «232»"
Жанр: Драма, криминал
Продолжительность: 32 x ~00:46:00
Перевод: Не требуется
Cубтитры: нет
Режиссер: Григорий Фёдоров, Олег Галин
В ролях: Дмитрий Мазуров, Виктория Тарасова, Владислав Котлярский, Денис Рожков, Анна Липко, Антон Батырев, Георгий Тополага, Андрей Сорока, Антон Афанасьев, Сергей Гурьев, Павел Мисаилов, Сандра Элиава, Игорь Стам, Роман Гапанюк, Мария Рассказова, Степан Рожнов, Денис Жариков, Дмитрий Фрид, Федор Румянцев, Валерий Новиков, Дарья Щербакова, Александр Лырчиков, Ольга Юрасова, Ольга Ефремова (III), Ирина Ивинская, Карина Реука, Артём Киселёв, Максим Январев
Описание: В четвертой главе сотрудникам «Пятницкого» противостоит новая сила: принципиальный сотрудник прокуратуры поставил перед собой цель разоблачить коррумпированную полицейскую группу, которую возглавляет Зимина. В конце концов, нашим героям предстоит осознать, насколько далеко они зашли, и от окончательного падения их будет отделять решающее голосование: убить или нет ради собственной безопасности достойного соперника, который не заслуживает смерти даже по их понятиям. Меж тем крепкие отношения в группе пошатнутся. Выдержат ли сотрудники «Пятницкого» очередную проверку на прочность и удастся ли Зиминой выйти сухой из воды, сохранив при этом друзей и человеческий облик?
Качество: SATRip
Формат: AVI
Видео кодек: XviD
Аудио кодек: MP3
Видео: 720x400, 25 fps, XviD, ~1400 kbps, 0.229 bit/pixel
Аудио: 48 kHz, MPEG Layer 3, 2 ch, 192 kbps

Внимание! Раздача ведётся путём добавления новых серий!

Внимание! Раздача ведётся путём добавления новых серий; при каждом добавлении создётся новый торрент. Чтобы начать докачку новой серии, пользователям необходимо сделать следующее:
(1) остановить скачивание,
(2) удалить старый торрент у себя из клиента (старые серии удалять не надо),
(3) скачать новый торрент и запустить его у себя в клиенте вместо старого, при этом указать клиенту путь в старую папку куда и должно происходить скачивание новых серий.
Ваш клиент при этом должен произвести хеширование (проверку) старой папки (если не производит сам - помогите ему сделать это), и будет докачивать только те серии которых у вас ещё нет. Старые серии при этом не удаляются, а продолжают раздаваться!
Eсли вы уже удалили старые серии, то предотвратить повторную закачку старых серий можно, отжав галочку в соответсвующих местах при запуске нового торрента.

MediaInfo

Общее
Полное имя : U:\Сериалы (2014)\Пятницкий. Глава четвёртая (2014)\Пятницкий. Глава четвёртая.(01.seriya).2014.XviD.SATRip.by.simka.avi
Формат : AVI
Формат/Информация : Audio Video Interleave
Размер файла : 510 Мбайт
Продолжительность : 44 м.
Общий поток : 1601 Кбит/сек
Программа кодирования : VirtualDubModRus 1.5.10.2 (build 2542/release)
Библиотека кодирования : VirtualDubMod build 2542/release
Видео
Идентификатор : 0
Формат : MPEG-4 Visual
Профиль формата : Advanced [email protected]
Параметр BVOP формата : 1
Параметр QPel формата : Нет
Параметр GMC формата : Без точки перехода
Параметр матрицы формата : Default (MPEG)
Идентификатор кодека : XVID
Идентификатор кодека/Подсказка : XviD
Продолжительность : 44 м.
Битрейт : 1400 Кбит/сек
Ширина : 720 пикселей
Высота : 400 пикселей
Соотношение сторон : 16:9
Частота кадров : 25,000 кадров/сек
Цветовое пространство : YUV
Субдискретизация насыщенности : 4:2:0
Битовая глубина : 8 бит
Тип развёртки : Прогрессивная
Метод сжатия : С потерями
Бит/(Пиксели*Кадры) : 0.194
Размер потока : 446 Мбайт (87%)
Библиотека кодирования : XviD 1.2.1 (UTC 2008-12-04)
Аудио
Идентификатор : 1
Формат : MPEG Audio
Версия формата : Version 1
Профиль формата : Layer 3
Режим : Joint stereo
Расширение режима : MS Stereo
Идентификатор кодека : 55
Идентификатор кодека/Подсказка : MP3
Продолжительность : 44 м.
Вид битрейта : Постоянный
Битрейт : 192 Кбит/сек
Каналы : 2 канала
Частота : 48,0 КГц
Метод сжатия : С потерями
Размер потока : 61,2 Мбайт (12%)
Выравнивание : Соединение по промежуткам
Продолжительность промежутка : 40 мс. (1,00 видеокадр)
Время предзагрузки промежутка : 504 мс.
Библиотека кодирования : LAME3.99r
Настройки программы : -m j -V 4 -q 2 -lowpass 18.6 -b 192


Последний раз редактировалось: mihis (2014-11-28 00:33), всего редактировалось 14 раз(а)
[Профиль]  [ЛС] 

mihis ®

Стаж: 2 года 1 месяц

Сообщений: 221

Создавать темы 05-Ноя-2014 00:16 (спустя 1 день)

[Цитировать] 

добавлены 3-4 серии
[Профиль]  [ЛС] 

NINA 2

Стаж: 6 лет 9 месяцев

Сообщений: 6

Создавать темы 05-Ноя-2014 09:22 (спустя 9 часов)

[Цитировать] 

СПАСИБО!
[Профиль]  [ЛС] 

mihis ®

Стаж: 2 года 1 месяц

Сообщений: 221

Создавать темы 08-Ноя-2014 01:06 (спустя 2 дня 15 часов)

[Цитировать] 

добавлены 5-6 серии
[Профиль]  [ЛС] 

RuS.S.

Стаж: 8 лет 2 месяца

Сообщений: 26

Создавать темы 08-Ноя-2014 16:18 (спустя 15 часов)

[Цитировать] 

Достали этими детективами и мелодрамами,хотя бы "Интернов" последний сезон выложили.
[Профиль]  [ЛС] 

mihis ®

Стаж: 2 года 1 месяц

Сообщений: 221

Создавать темы 11-Ноя-2014 00:43 (спустя 2 дня 8 часов)

[Цитировать] 

добавлены 7-8 серии
[Профиль]  [ЛС] 

mihis ®

Стаж: 2 года 1 месяц

Сообщений: 221

Создавать темы 12-Ноя-2014 00:48 (спустя 1 день)

[Цитировать] 

добавлены 9-10 серии
[Профиль]  [ЛС] 

mihis ®

Стаж: 2 года 1 месяц

Сообщений: 221

Создавать темы 13-Ноя-2014 00:32 (спустя 23 часа)

[Цитировать] 

добавлены 11-12 серии
[Профиль]  [ЛС] 

mihis ®

Стаж: 2 года 1 месяц

Сообщений: 221

Создавать темы 14-Ноя-2014 00:28 (спустя 23 часа)

[Цитировать] 

добавлены 13-14 серии
[Профиль]  [ЛС] 

mihis ®

Стаж: 2 года 1 месяц

Сообщений: 221

Создавать темы 15-Ноя-2014 00:21 (спустя 23 часа)

[Цитировать] 

добавлены 15-16 серии
[Профиль]  [ЛС] 

mihis ®

Стаж: 2 года 1 месяц

Сообщений: 221

Создавать темы 18-Ноя-2014 00:43 (спустя 3 дня)

[Цитировать] 

добавлены 17-18 серии
[Профиль]  [ЛС] 

mihis ®

Стаж: 2 года 1 месяц

Сообщений: 221

Создавать темы 20-Ноя-2014 00:26 (спустя 1 день 23 часа)

[Цитировать] 

добавлены 19-20 серии
[Профиль]  [ЛС] 

mihis ®

Стаж: 2 года 1 месяц

Сообщений: 221

Создавать темы 21-Ноя-2014 00:34 (спустя 1 день)

[Цитировать] 

добавлены 21-22 серии
[Профиль]  [ЛС] 

mihis ®

Стаж: 2 года 1 месяц

Сообщений: 221

Создавать темы 22-Ноя-2014 00:56 (спустя 1 день)

[Цитировать] 

добавлены 23-24 серии
[Профиль]  [ЛС] 

mihis ®

Стаж: 2 года 1 месяц

Сообщений: 221

Создавать темы 25-Ноя-2014 00:41 (спустя 2 дня 23 часа)

[Цитировать] 

добавлены 25-26 серии
[Профиль]  [ЛС] 

Riana

Стаж: 6 лет 2 месяца

Сообщений: 82

Создавать темы 25-Ноя-2014 09:39 (спустя 8 часов)

[Цитировать] 

Спасибо!!!)))
[Профиль]  [ЛС] 

mihis ®

Стаж: 2 года 1 месяц

Сообщений: 221

Создавать темы 26-Ноя-2014 00:40 (спустя 15 часов)

[Цитировать] 

добавлены 27-28 серии
[Профиль]  [ЛС] 

mihis ®

Стаж: 2 года 1 месяц

Сообщений: 221

Создавать темы 27-Ноя-2014 00:37 (спустя 23 часа)

[Цитировать] 

добавлены 29-30 серии
[Профиль]  [ЛС] 

mihis ®

Стаж: 2 года 1 месяц

Сообщений: 221

Создавать темы 28-Ноя-2014 00:33 (спустя 23 часа)

[Цитировать] 

добавлены 31-32 серии ФИНАЛ
[Профиль]  [ЛС] 
Показать сообщения:    
Ответить на тему

Текущее время: 09-Дек 04:55

Часовой пояс: UTC + 3



Вы не можете начинать темы
Вы не можете отвечать на сообщения
Вы не можете редактировать свои сообщения
Вы не можете удалять свои сообщения
Вы не можете голосовать в опросах
Вы не можете прикреплять файлы к сообщениям
Вы не можете скачивать файлы