Волчье солнце (1 серии из 12) (Сергей Гинзбург) [2014 г., Драма, приключения, WEB-DLRip]

Ответить на тему
Статистика раздачи [Обновить пиров]
Нет
 
   
 
 
Автор
Сообщение

mihis ®

Стаж: 2 года 1 месяц

Сообщений: 221

Создавать темы 10-Ноя-2014 23:02

[Цитировать] 

Волчье солнце1 серии Год выпуска: 2014
Страна: Россия, Беларусь, «Беларусьфильм» совместно со Star Media
Жанр: Драма, приключения
Продолжительность: 1 x ~00:45:00
Перевод: Не требуется
Cубтитры: нет
Режиссер: Сергей Гинзбург
В ролях: Гела Месхи, Александр Робак, Владимир Ильин, Андрей Мерзликин, Екатерина Климова, Ян Фрыч, Павел Трубинер, Софья Каштанова, Ольга Красько, Максим Лагашкин, Игорь Хрипунов, Сергей Годин, Александр Суцкове
Описание: 1924 год. Молодому чекисту Михаилу Останину удается раздобыть сверхважную информацию: через два месяца на территорию СССР начнется вторжение белоэмигрантских войск, подготовленное британской разведкой. Ударят в одновременно в нескольких местах - в Средней Азии, Бессарабии, Прибалтике. Но основной удар планируется нанести с территории Польши. Руководство ОГПУ ставит перед Останиным почти невыполнимую задачу: предотвратить нападение, став доверенным лицом генерала Ромовского - командующего операцией и будущего Верховного правителя захваченных территорий в Советской Белоруссии и Украине. Вступив в банду контрабандистов, Останин проникает на территорию Польши, где сосредоточены войска Ромовского. Он действует под именем своего друга детства Януша Галецкого - поляка, белого офицера, погибшего в боях с красными на юге России. Пройдя многочисленные проверки, Останину-Галецкому удается стать сначала завербованным агентом начальника контрразведки Ромовского полковника Сегунды, а затем – офицером для особых поручений у самого Ромовского…Кроме авантюрно-приключенческого сюжета, в этой истории существует и романтическая линия - неожиданно для себя герой влюбится и вынужден будет выбирать между любовью и исполнением долга.
Качество: WEB-DLRip
Формат: AVI
Видео кодек: XviD
Аудио кодек: AC3
Видео: 720x400 (1.80:1), 29.970 fps, XviD build 50 ~1535 kbps avg, 0.18 bit/pixel
Аудио: 44.100 kHz, AC3 Dolby Digital, 2/0 (L,R) ch, ~128.00 kbps avg

Внимание! Раздача ведётся путём добавления новых серий!

Внимание! Раздача ведётся путём добавления новых серий; при каждом добавлении создётся новый торрент. Чтобы начать докачку новой серии, пользователям необходимо сделать следующее:
(1) остановить скачивание,
(2) удалить старый торрент у себя из клиента (старые серии удалять не надо),
(3) скачать новый торрент и запустить его у себя в клиенте вместо старого, при этом указать клиенту путь в старую папку куда и должно происходить скачивание новых серий.
Ваш клиент при этом должен произвести хеширование (проверку) старой папки (если не производит сам - помогите ему сделать это), и будет докачивать только те серии которых у вас ещё нет. Старые серии при этом не удаляются, а продолжают раздаваться!
Eсли вы уже удалили старые серии, то предотвратить повторную закачку старых серий можно, отжав галочку в соответсвующих местах при запуске нового торрента.

MediaInfo

Общее
Полное имя : G:\Video\Volche.solnce.01.WEBDLRip.avi
Формат : AVI
Формат/Информация : Audio Video Interleave
Размер файла : 599 Мбайт
Продолжительность : 50 м.
Общий поток : 1675 Кбит/сек
Программа кодирования : VirtualDubMod 1.5.10.3 | www.virtualdub-fr.org || (build 2550/release)
Библиотека кодирования : VirtualDubMod build 2550/release
Видео
Идентификатор : 0
Формат : MPEG-4 Visual
Профиль формата : Advanced [email protected]
Параметр BVOP формата : 2
Параметр QPel формата : Нет
Параметр GMC формата : Без точки перехода
Параметр матрицы формата : Default (MPEG)
Идентификатор кодека : XVID
Идентификатор кодека/Подсказка : XviD
Продолжительность : 50 м.
Битрейт : 1536 Кбит/сек
Ширина : 720 пикселей
Высота : 400 пикселей
Соотношение сторон : 16:9
Частота кадров : 29,970 кадров/сек
Цветовое пространство : YUV
Субдискретизация насыщенности : 4:2:0
Битовая глубина : 8 бит
Тип развёртки : Прогрессивная
Метод сжатия : С потерями
Бит/(Пиксели*Кадры) : 0.178
Размер потока : 549 Мбайт (92%)
Библиотека кодирования : XviD 1.2.1 (UTC 2008-12-04)
Аудио
Идентификатор : 1
Формат : AC-3
Формат/Информация : Audio Coding 3
Расширение режима : CM (complete main)
Параметр Endianness формата : Big
Идентификатор кодека : 2000
Продолжительность : 50 м.
Вид битрейта : Постоянный
Битрейт : 128 Кбит/сек
Каналы : 2 канала
Расположение каналов : Front: L R
Частота : 44,1 КГц
Битовая глубина : 16 бит
Метод сжатия : С потерями
Размер потока : 45,8 Мбайт (8%)
Выравнивание : Разделение по промежуткам
Продолжительность промежутка : 33 мс. (1,00 видеокадр)
Время предзагрузки промежутка : 500 мс.
[Профиль]  [ЛС] 
Похожие темы
Форум Тема Автор Размер
Отечественные сериалы Волчье солнце ( 1-12 серия из 12) (Сергей Гинзбург) [2014, Драма, приключения,SATRip] Serega624 7,93 GB
Показать сообщения:    
Ответить на тему

Текущее время: 04-Дек 04:56

Часовой пояс: UTC + 3



Вы не можете начинать темы
Вы не можете отвечать на сообщения
Вы не можете редактировать свои сообщения
Вы не можете удалять свои сообщения
Вы не можете голосовать в опросах
Вы не можете прикреплять файлы к сообщениям
Вы не можете скачивать файлы